韩国MTV网[韩国音乐论坛]

 找回密码
 注册

QQ登录

只需一步,快速开始

查看: 1097|回复: 9

[16/06/23]CLC-Mr.Chu(特别舞台).Ment Japan(日本台).10thM![240M/810P/百度网盘]

[复制链接]
发表于 2016-6-24 07:33 | 显示全部楼层 |阅读模式


General
Complete name                  : [160623]CLC-Mr.Chu(特别舞台).Ment Japan(日本台) 10thM!Countdown[810P][高画质][60帧].mp4
Format                         : MPEG-4
Format profile                 : Base Media
Codec ID                       : isom (isom)
File size                      : 240 MiB
Duration                       : 3mn 26s
Overall bit rate mode          : Variable
Overall bit rate               : 9 741 Kbps
Encoded date                   : UTC 2016-06-23 22:55:45
Tagged date                    : UTC 2016-06-23 22:55:45

Video
ID                             : 1
Format                         : AVC
Format/Info                    : Advanced Video Codec
Format profile                 : High@L4.2
Format settings, CABAC         : Yes
Format settings, ReFrames      : 7 frames
Codec ID                       : avc1
Codec ID/Info                  : Advanced Video Coding
Duration                       : 3mn 26s
Bit rate mode                  : Variable
Bit rate                       : 9 456 Kbps
Width                          : 1 440 pixels
Height                         : 812 pixels
Display aspect ratio           : 16:9
Frame rate mode                : Constant
Frame rate                     : 59.940fps
Standard                       : NTSC
Color space                    : YUV
Chroma subsampling             : 4:2:0
Bit depth                      : 8 bits
Scan type                      : Progressive
Bits/(Pixel*Frame)             : 0.135
Stream size                    : 234 MiB (97%)
Writing library                : x264 core 112
Encoding settings              : cabac=1 / ref=7 / deblock=1:-4:-3 / analyse=0x3:0x113 / me=umh / subme=7 / psy=1 / psy_rd=1.00:0.00 / mixed_ref=1 / me_range=29 / chroma_me=1 / trellis=1 / 8x8dct=1 / cqm=2 / deadzone=21,11 / fast_pskip=1 / chroma_qp_offset=-2 / threads=6 / sliced_threads=0 / slices=1 / nr=0 / decimate=1 / interlaced=0 / constrained_intra=1 / bframes=7 / b_pyramid=0 / b_adapt=1 / b_bias=0 / direct=1 / weightb=1 / open_gop=0 / weightp=2 / keyint=250 / keyint_min=25 / scenecut=40 / intra_refresh=0 / rc_lookahead=40 / rc=crf / mbtree=1 / crf=1.0 / qcomp=0.60 / qpmin=3 / qpmax=51 / qpstep=4 / vbv_maxrate=9456 / vbv_bufsize=9453 / crf_max=51.0 / nal_hrd=vbr / frame-packing=0 / ip_ratio=1.40 / aq=1:1.00
Tagged date                    : UTC 2016-06-23 22:55:46
Color range                    : Limited
Color primaries                : BT.709
Transfer characteristics       : BT.709
Matrix coefficients            : BT.709

Audio
ID                             : 2
Format                         : AAC
Format/Info                    : Advanced Audio Codec
Format profile                 : LC
Codec ID                       : 40
Duration                       : 3mn 26s
Bit rate mode                  : Variable
Bit rate                       : 256 Kbps
Maximum bit rate               : 260 Kbps
Channel(s)                     : 2 channels
Channel positions              : Front: L R
Sampling rate                  : 48.0 KHz
Compression mode               : Lossy
Stream size                    : 6.31 MiB (3%)
Tagged date                    : UTC 2016-06-23 22:55:46
购买主题 本主题需向作者支付 2 金钱 才能浏览
回复

使用道具 举报

发表于 2016-6-24 21:27 | 显示全部楼层
刚看了下,视频磨皮太严重了,腿都有点儿油画的感觉了
回复 支持 反对

使用道具 举报

发表于 2016-6-25 07:44 | 显示全部楼层
同意楼上的观点,希望发布1080P的版本。
回复 支持 反对

使用道具 举报

发表于 2016-8-23 22:41 | 显示全部楼层
超喜欢这首歌的,终于收到了,多谢lz分享
回复 支持 反对

使用道具 举报

发表于 2017-1-30 17:58 | 显示全部楼层
她們本來該走此路線的, 這曲很合她們 !
回复 支持 反对

使用道具 举报

发表于 2017-4-12 09:24 | 显示全部楼层
clc走这种可爱路线最合适不过
回复 支持 反对

使用道具 举报

发表于 2018-3-28 22:19 来自手机 | 显示全部楼层
她們真的很可愛, 此曲太合她們了!
回复 支持 反对

使用道具 举报

发表于 2019-4-13 15:59 | 显示全部楼层
清纯CLC 虽然现在出的都很强势 挺喜欢CLC的 希望早日红起来
回复 支持 反对

使用道具 举报

发表于 2019-4-17 18:44 | 显示全部楼层
刚开始以为CLC会走这种青春风 毕竟都是cube的  现在的舞台 歌曲都越来越强烈
回复 支持 反对

使用道具 举报

发表于 2020-7-26 10:52 | 显示全部楼层
这一场我还真的没有收藏呢
回复 支持 反对

使用道具 举报

您需要登录后才可以回帖 登录 | 注册

本版积分规则

小黑屋|手机版|Archiver|韩国MTV网  

GMT+8, 2021-1-20 01:40 , Processed in 0.031660 second(s), 12 queries , Xcache On.

Powered by Discuz! X3.1

© 2001-2013 Comsenz Inc.

快速回复 返回顶部 返回列表