韩国MTV网[韩国音乐论坛]

 找回密码
 注册

QQ登录

只需一步,快速开始

查看: 835|回复: 3

[16/02/05]BigBang - Fantastic Baby + Bang Bang Bang. Music Station[348M/60帧/...

[复制链接]
发表于 2016-2-10 17:27 | 显示全部楼层 |阅读模式

[160205]BigBang - Fantastic Baby + Bang Bang Bang.TV Asah Music Station[810P][高画质][60帧].mp4
  General
    Complete name : [160205]BigBang - Fantastic Baby + Bang Bang Bang.TV Asah Music Station[810P][高画质][60帧].mp4
    Format : MPEG-4
    Format profile : Base Media
    Codec ID : isom
    File size : 348 MiB
    Duration : 5mn 13s
    Overall bit rate mode : Variable
    Overall bit rate : 9 314 Kbps
    Encoded date : UTC 2016-02-10 09:19:35
    Tagged date : UTC 2016-02-10 09:19:35
  Video #1
    ID : 1
    Format : AVC
    Format/Info : Advanced Video Codec
    Format profile : High@L4.2
    Format settings, CABAC : Yes
    Format settings, ReFrames : 7 frames
    Codec ID : avc1
    Codec ID/Info : Advanced Video Coding
    Duration : 5mn 13s
    Bit rate mode : Variable
    Bit rate : 8 765 Kbps
    Width : 1 440 pixels
    Height : 812 pixels
    Display aspect ratio : 16:9
    Frame rate mode : Constant
    Frame rate : 59.940 fps
    Standard : NTSC
    Color space : YUV
    Chroma subsampling : 4:2:0
    Bit depth : 8 bits
    Scan type : Progressive
    Bits/(Pixel*Frame) : 0.125
    Stream size : 328 MiB (94%)
    Writing library : x264 core 112
    Encoding settings : cabac=1 / ref=7 / deblock=1:-4:-3 / analyse=0x3:0x113 / me=umh / subme=7 / psy=1 / psy_rd=1.00:0.00 / mixed_ref=1 / me_range=23 / chroma_me=1 / trellis=1 / 8x8dct=1 / cqm=2 / deadzone=21,11 / fast_pskip=1 / chroma_qp_offset=-2 / threads=6 / sliced_threads=0 / slices=1 / nr=0 / decimate=1 / interlaced=0 / constrained_intra=0 / bframes=7 / b_pyramid=0 / b_adapt=1 / b_bias=0 / direct=1 / weightb=1 / open_gop=0 / weightp=2 / keyint=250 / keyint_min=25 / scenecut=40 / intra_refresh=0 / rc_lookahead=40 / rc=crf / mbtree=1 / crf=1.0 / qcomp=0.60 / qpmin=3 / qpmax=51 / qpstep=4 / vbv_maxrate=8765 / vbv_bufsize=8749 / crf_max=51.0 / nal_hrd=vbr / frame-packing=0 / ip_ratio=1.40 / aq=1:1.00
    Tagged date : UTC 2016-02-10 09:19:36
    Color primaries : BT.709
    Transfer characteristics : BT.709
    Matrix coefficients : BT.709
  Audio #2
    ID : 2
    Format : AAC
    Format/Info : Advanced Audio Codec
    Format profile : LC
    Codec ID : 40
    Duration : 5mn 13s
    Bit rate mode : Variable
    Bit rate : 529 Kbps
    Maximum bit rate : 544 Kbps
    Channel count : 2 channels
    Channel positions : Front: L R
    Sampling rate : 48.0 KHz
    Compression mode : Lossy
    Delay relative to video : 17ms
    Stream size : 19.8 MiB (6%)
    Tagged date : UTC 2016-02-10 09:19:36

游客,本帖隐藏的内容需要积分高于 10 才可浏览,您当前积分为 0
回复

使用道具 举报

发表于 2016-2-13 11:26 | 显示全部楼层
谢谢分享资源 新年快乐哦
回复 支持 反对

使用道具 举报

发表于 2016-3-25 12:12 | 显示全部楼层
超級感恩.謝謝分享.超愛BB的
回复 支持 反对

使用道具 举报

您需要登录后才可以回帖 登录 | 注册

本版积分规则

小黑屋|手机版|Archiver|韩国MTV网  

GMT+8, 2021-3-1 20:39 , Processed in 0.047690 second(s), 12 queries , Xcache On.

Powered by Discuz! X3.1

© 2001-2013 Comsenz Inc.

快速回复 返回顶部 返回列表