ASDFGlove 发表于 2016-6-24 07:20



General
Complete name                  : [160623]EXO- Monster.Ment Japan(日本台) 10thM!Countdown[810P][高画质][60帧].mp4
Format                         : MPEG-4
Format profile                 : Base Media
Codec ID                       : isom (isom)
File size                      : 277 MiB
Duration                       : 3mn 58s
Overall bit rate mode          : Variable
Overall bit rate               : 9 736 Kbps
Encoded date                   : UTC 2016-06-23 22:15:23
Tagged date                    : UTC 2016-06-23 22:15:23

Video
ID                             : 1
Format                         : AVC
Format/Info                    : Advanced Video Codec
Format profile                 : High@L4.2
Format settings, CABAC         : Yes
Format settings, ReFrames      : 7 frames
Codec ID                       : avc1
Codec ID/Info                  : Advanced Video Coding
Duration                       : 3mn 58s
Bit rate mode                  : Variable
Bit rate                       : 9 456 Kbps
Width                          : 1 440 pixels
Height                         : 812 pixels
Display aspect ratio           : 16:9
Frame rate mode                : Constant
Frame rate                     : 59.940fps
Standard                       : NTSC
Color space                    : YUV
Chroma subsampling             : 4:2:0
Bit depth                      : 8 bits
Scan type                      : Progressive
Bits/(Pixel*Frame)             : 0.135
Stream size                    : 269 MiB (97%)
Writing library                : x264 core 112
Encoding settings              : cabac=1 / ref=7 / deblock=1:-4:-3 / analyse=0x3:0x113 / me=umh / subme=7 / psy=1 / psy_rd=1.00:0.00 / mixed_ref=1 / me_range=29 / chroma_me=1 / trellis=1 / 8x8dct=1 / cqm=2 / deadzone=21,11 / fast_pskip=1 / chroma_qp_offset=-2 / threads=6 / sliced_threads=0 / slices=1 / nr=0 / decimate=1 / interlaced=0 / constrained_intra=1 / bframes=7 / b_pyramid=0 / b_adapt=1 / b_bias=0 / direct=1 / weightb=1 / open_gop=0 / weightp=2 / keyint=250 / keyint_min=25 / scenecut=40 / intra_refresh=0 / rc_lookahead=40 / rc=crf / mbtree=1 / crf=1.0 / qcomp=0.60 / qpmin=3 / qpmax=51 / qpstep=4 / vbv_maxrate=9456 / vbv_bufsize=9453 / crf_max=51.0 / nal_hrd=vbr / frame-packing=0 / ip_ratio=1.40 / aq=1:1.00
Tagged date                    : UTC 2016-06-23 22:15:24
Color range                    : Limited
Color primaries                : BT.709
Transfer characteristics       : BT.709
Matrix coefficients            : BT.709

Audio
ID                             : 2
Format                         : AAC
Format/Info                    : Advanced Audio Codec
Format profile                 : LC
Codec ID                       : 40
Duration                       : 3mn 58s
Bit rate mode                  : Variable
Bit rate                       : 256 Kbps
Maximum bit rate               : 259 Kbps
Channel(s)                     : 2 channels
Channel positions              : Front: L R
Sampling rate                  : 48.0 KHz
Compression mode               : Lossy
Stream size                    : 7.27 MiB (3%)
Tagged date                    : UTC 2016-06-23 22:15:24
购买主题 本主题需向作者支付 2 金钱 才能浏览

渲染色彩 发表于 2016-6-24 14:28



General
Complete name                  : [160623]EXO- Monster.Ment Japan(日本台) 10thM!Countdown[810P][高画质][60帧].mp4
Format                         : MPEG-4
Format profile                 : Base Media
Codec ID                       : isom (isom)
File size                      : 277 MiB
Duration                       : 3mn 58s
Overall bit rate mode          : Variable
Overall bit rate               : 9 736 Kbps
Encoded date                   : UTC 2016-06-23 22:15:23
Tagged date                    : UTC 2016-06-23 22:15:23

Video
ID                             : 1
Format                         : AVC
Format/Info                    : Advanced Video Codec
Format profile                 : High@L4.2
Format settings, CABAC         : Yes
Format settings, ReFrames      : 7 frames
Codec ID                       : avc1
Codec ID/Info                  : Advanced Video Coding
Duration                       : 3mn 58s
Bit rate mode                  : Variable
Bit rate                       : 9 456 Kbps
Width                          : 1 440 pixels
Height                         : 812 pixels
Display aspect ratio           : 16:9
Frame rate mode                : Constant
Frame rate                     : 59.940fps
Standard                       : NTSC
Color space                    : YUV
Chroma subsampling             : 4:2:0
Bit depth                      : 8 bits
Scan type                      : Progressive
Bits/(Pixel*Frame)             : 0.135
Stream size                    : 269 MiB (97%)
Writing library                : x264 core 112
Encoding settings              : cabac=1 / ref=7 / deblock=1:-4:-3 / analyse=0x3:0x113 / me=umh / subme=7 / psy=1 / psy_rd=1.00:0.00 / mixed_ref=1 / me_range=29 / chroma_me=1 / trellis=1 / 8x8dct=1 / cqm=2 / deadzone=21,11 / fast_pskip=1 / chroma_qp_offset=-2 / threads=6 / sliced_threads=0 / slices=1 / nr=0 / decimate=1 / interlaced=0 / constrained_intra=1 / bframes=7 / b_pyramid=0 / b_adapt=1 / b_bias=0 / direct=1 / weightb=1 / open_gop=0 / weightp=2 / keyint=250 / keyint_min=25 / scenecut=40 / intra_refresh=0 / rc_lookahead=40 / rc=crf / mbtree=1 / crf=1.0 / qcomp=0.60 / qpmin=3 / qpmax=51 / qpstep=4 / vbv_maxrate=9456 / vbv_bufsize=9453 / crf_max=51.0 / nal_hrd=vbr / frame-packing=0 / ip_ratio=1.40 / aq=1:1.00
Tagged date                    : UTC 2016-06-23 22:15:24
Color range                    : Limited
Color primaries                : BT.709
Transfer characteristics       : BT.709
Matrix coefficients            : BT.709

Audio
ID                             : 2
Format                         : AAC
Format/Info                    : Advanced Audio Codec
Format profile                 : LC
Codec ID                       : 40
Duration                       : 3mn 58s
Bit rate mode                  : Variable
Bit rate                       : 256 Kbps
Maximum bit rate               : 259 Kbps
Channel(s)                     : 2 channels
Channel positions              : Front: L R
Sampling rate                  : 48.0 KHz
Compression mode               : Lossy
Stream size                    : 7.27 MiB (3%)
Tagged date                    : UTC 2016-06-23 22:15:24
购买主题 本主题需向作者支付 2 金钱 才能浏览

蓝色双鱼 发表于 2016-8-23 21:32



General
Complete name                  : [160623]EXO- Monster.Ment Japan(日本台) 10thM!Countdown[810P][高画质][60帧].mp4
Format                         : MPEG-4
Format profile                 : Base Media
Codec ID                       : isom (isom)
File size                      : 277 MiB
Duration                       : 3mn 58s
Overall bit rate mode          : Variable
Overall bit rate               : 9 736 Kbps
Encoded date                   : UTC 2016-06-23 22:15:23
Tagged date                    : UTC 2016-06-23 22:15:23

Video
ID                             : 1
Format                         : AVC
Format/Info                    : Advanced Video Codec
Format profile                 : High@L4.2
Format settings, CABAC         : Yes
Format settings, ReFrames      : 7 frames
Codec ID                       : avc1
Codec ID/Info                  : Advanced Video Coding
Duration                       : 3mn 58s
Bit rate mode                  : Variable
Bit rate                       : 9 456 Kbps
Width                          : 1 440 pixels
Height                         : 812 pixels
Display aspect ratio           : 16:9
Frame rate mode                : Constant
Frame rate                     : 59.940fps
Standard                       : NTSC
Color space                    : YUV
Chroma subsampling             : 4:2:0
Bit depth                      : 8 bits
Scan type                      : Progressive
Bits/(Pixel*Frame)             : 0.135
Stream size                    : 269 MiB (97%)
Writing library                : x264 core 112
Encoding settings              : cabac=1 / ref=7 / deblock=1:-4:-3 / analyse=0x3:0x113 / me=umh / subme=7 / psy=1 / psy_rd=1.00:0.00 / mixed_ref=1 / me_range=29 / chroma_me=1 / trellis=1 / 8x8dct=1 / cqm=2 / deadzone=21,11 / fast_pskip=1 / chroma_qp_offset=-2 / threads=6 / sliced_threads=0 / slices=1 / nr=0 / decimate=1 / interlaced=0 / constrained_intra=1 / bframes=7 / b_pyramid=0 / b_adapt=1 / b_bias=0 / direct=1 / weightb=1 / open_gop=0 / weightp=2 / keyint=250 / keyint_min=25 / scenecut=40 / intra_refresh=0 / rc_lookahead=40 / rc=crf / mbtree=1 / crf=1.0 / qcomp=0.60 / qpmin=3 / qpmax=51 / qpstep=4 / vbv_maxrate=9456 / vbv_bufsize=9453 / crf_max=51.0 / nal_hrd=vbr / frame-packing=0 / ip_ratio=1.40 / aq=1:1.00
Tagged date                    : UTC 2016-06-23 22:15:24
Color range                    : Limited
Color primaries                : BT.709
Transfer characteristics       : BT.709
Matrix coefficients            : BT.709

Audio
ID                             : 2
Format                         : AAC
Format/Info                    : Advanced Audio Codec
Format profile                 : LC
Codec ID                       : 40
Duration                       : 3mn 58s
Bit rate mode                  : Variable
Bit rate                       : 256 Kbps
Maximum bit rate               : 259 Kbps
Channel(s)                     : 2 channels
Channel positions              : Front: L R
Sampling rate                  : 48.0 KHz
Compression mode               : Lossy
Stream size                    : 7.27 MiB (3%)
Tagged date                    : UTC 2016-06-23 22:15:24
购买主题 本主题需向作者支付 2 金钱 才能浏览

音乐领域小柯 发表于 2016-8-23 22:48



General
Complete name                  : [160623]EXO- Monster.Ment Japan(日本台) 10thM!Countdown[810P][高画质][60帧].mp4
Format                         : MPEG-4
Format profile                 : Base Media
Codec ID                       : isom (isom)
File size                      : 277 MiB
Duration                       : 3mn 58s
Overall bit rate mode          : Variable
Overall bit rate               : 9 736 Kbps
Encoded date                   : UTC 2016-06-23 22:15:23
Tagged date                    : UTC 2016-06-23 22:15:23

Video
ID                             : 1
Format                         : AVC
Format/Info                    : Advanced Video Codec
Format profile                 : High@L4.2
Format settings, CABAC         : Yes
Format settings, ReFrames      : 7 frames
Codec ID                       : avc1
Codec ID/Info                  : Advanced Video Coding
Duration                       : 3mn 58s
Bit rate mode                  : Variable
Bit rate                       : 9 456 Kbps
Width                          : 1 440 pixels
Height                         : 812 pixels
Display aspect ratio           : 16:9
Frame rate mode                : Constant
Frame rate                     : 59.940fps
Standard                       : NTSC
Color space                    : YUV
Chroma subsampling             : 4:2:0
Bit depth                      : 8 bits
Scan type                      : Progressive
Bits/(Pixel*Frame)             : 0.135
Stream size                    : 269 MiB (97%)
Writing library                : x264 core 112
Encoding settings              : cabac=1 / ref=7 / deblock=1:-4:-3 / analyse=0x3:0x113 / me=umh / subme=7 / psy=1 / psy_rd=1.00:0.00 / mixed_ref=1 / me_range=29 / chroma_me=1 / trellis=1 / 8x8dct=1 / cqm=2 / deadzone=21,11 / fast_pskip=1 / chroma_qp_offset=-2 / threads=6 / sliced_threads=0 / slices=1 / nr=0 / decimate=1 / interlaced=0 / constrained_intra=1 / bframes=7 / b_pyramid=0 / b_adapt=1 / b_bias=0 / direct=1 / weightb=1 / open_gop=0 / weightp=2 / keyint=250 / keyint_min=25 / scenecut=40 / intra_refresh=0 / rc_lookahead=40 / rc=crf / mbtree=1 / crf=1.0 / qcomp=0.60 / qpmin=3 / qpmax=51 / qpstep=4 / vbv_maxrate=9456 / vbv_bufsize=9453 / crf_max=51.0 / nal_hrd=vbr / frame-packing=0 / ip_ratio=1.40 / aq=1:1.00
Tagged date                    : UTC 2016-06-23 22:15:24
Color range                    : Limited
Color primaries                : BT.709
Transfer characteristics       : BT.709
Matrix coefficients            : BT.709

Audio
ID                             : 2
Format                         : AAC
Format/Info                    : Advanced Audio Codec
Format profile                 : LC
Codec ID                       : 40
Duration                       : 3mn 58s
Bit rate mode                  : Variable
Bit rate                       : 256 Kbps
Maximum bit rate               : 259 Kbps
Channel(s)                     : 2 channels
Channel positions              : Front: L R
Sampling rate                  : 48.0 KHz
Compression mode               : Lossy
Stream size                    : 7.27 MiB (3%)
Tagged date                    : UTC 2016-06-23 22:15:24
购买主题 本主题需向作者支付 2 金钱 才能浏览

walker2010 发表于 2017-4-15 08:23



General
Complete name                  : [160623]EXO- Monster.Ment Japan(日本台) 10thM!Countdown[810P][高画质][60帧].mp4
Format                         : MPEG-4
Format profile                 : Base Media
Codec ID                       : isom (isom)
File size                      : 277 MiB
Duration                       : 3mn 58s
Overall bit rate mode          : Variable
Overall bit rate               : 9 736 Kbps
Encoded date                   : UTC 2016-06-23 22:15:23
Tagged date                    : UTC 2016-06-23 22:15:23

Video
ID                             : 1
Format                         : AVC
Format/Info                    : Advanced Video Codec
Format profile                 : High@L4.2
Format settings, CABAC         : Yes
Format settings, ReFrames      : 7 frames
Codec ID                       : avc1
Codec ID/Info                  : Advanced Video Coding
Duration                       : 3mn 58s
Bit rate mode                  : Variable
Bit rate                       : 9 456 Kbps
Width                          : 1 440 pixels
Height                         : 812 pixels
Display aspect ratio           : 16:9
Frame rate mode                : Constant
Frame rate                     : 59.940fps
Standard                       : NTSC
Color space                    : YUV
Chroma subsampling             : 4:2:0
Bit depth                      : 8 bits
Scan type                      : Progressive
Bits/(Pixel*Frame)             : 0.135
Stream size                    : 269 MiB (97%)
Writing library                : x264 core 112
Encoding settings              : cabac=1 / ref=7 / deblock=1:-4:-3 / analyse=0x3:0x113 / me=umh / subme=7 / psy=1 / psy_rd=1.00:0.00 / mixed_ref=1 / me_range=29 / chroma_me=1 / trellis=1 / 8x8dct=1 / cqm=2 / deadzone=21,11 / fast_pskip=1 / chroma_qp_offset=-2 / threads=6 / sliced_threads=0 / slices=1 / nr=0 / decimate=1 / interlaced=0 / constrained_intra=1 / bframes=7 / b_pyramid=0 / b_adapt=1 / b_bias=0 / direct=1 / weightb=1 / open_gop=0 / weightp=2 / keyint=250 / keyint_min=25 / scenecut=40 / intra_refresh=0 / rc_lookahead=40 / rc=crf / mbtree=1 / crf=1.0 / qcomp=0.60 / qpmin=3 / qpmax=51 / qpstep=4 / vbv_maxrate=9456 / vbv_bufsize=9453 / crf_max=51.0 / nal_hrd=vbr / frame-packing=0 / ip_ratio=1.40 / aq=1:1.00
Tagged date                    : UTC 2016-06-23 22:15:24
Color range                    : Limited
Color primaries                : BT.709
Transfer characteristics       : BT.709
Matrix coefficients            : BT.709

Audio
ID                             : 2
Format                         : AAC
Format/Info                    : Advanced Audio Codec
Format profile                 : LC
Codec ID                       : 40
Duration                       : 3mn 58s
Bit rate mode                  : Variable
Bit rate                       : 256 Kbps
Maximum bit rate               : 259 Kbps
Channel(s)                     : 2 channels
Channel positions              : Front: L R
Sampling rate                  : 48.0 KHz
Compression mode               : Lossy
Stream size                    : 7.27 MiB (3%)
Tagged date                    : UTC 2016-06-23 22:15:24
购买主题 本主题需向作者支付 2 金钱 才能浏览

最时尚 发表于 2018-3-28 22:25



General
Complete name                  : [160623]EXO- Monster.Ment Japan(日本台) 10thM!Countdown[810P][高画质][60帧].mp4
Format                         : MPEG-4
Format profile                 : Base Media
Codec ID                       : isom (isom)
File size                      : 277 MiB
Duration                       : 3mn 58s
Overall bit rate mode          : Variable
Overall bit rate               : 9 736 Kbps
Encoded date                   : UTC 2016-06-23 22:15:23
Tagged date                    : UTC 2016-06-23 22:15:23

Video
ID                             : 1
Format                         : AVC
Format/Info                    : Advanced Video Codec
Format profile                 : High@L4.2
Format settings, CABAC         : Yes
Format settings, ReFrames      : 7 frames
Codec ID                       : avc1
Codec ID/Info                  : Advanced Video Coding
Duration                       : 3mn 58s
Bit rate mode                  : Variable
Bit rate                       : 9 456 Kbps
Width                          : 1 440 pixels
Height                         : 812 pixels
Display aspect ratio           : 16:9
Frame rate mode                : Constant
Frame rate                     : 59.940fps
Standard                       : NTSC
Color space                    : YUV
Chroma subsampling             : 4:2:0
Bit depth                      : 8 bits
Scan type                      : Progressive
Bits/(Pixel*Frame)             : 0.135
Stream size                    : 269 MiB (97%)
Writing library                : x264 core 112
Encoding settings              : cabac=1 / ref=7 / deblock=1:-4:-3 / analyse=0x3:0x113 / me=umh / subme=7 / psy=1 / psy_rd=1.00:0.00 / mixed_ref=1 / me_range=29 / chroma_me=1 / trellis=1 / 8x8dct=1 / cqm=2 / deadzone=21,11 / fast_pskip=1 / chroma_qp_offset=-2 / threads=6 / sliced_threads=0 / slices=1 / nr=0 / decimate=1 / interlaced=0 / constrained_intra=1 / bframes=7 / b_pyramid=0 / b_adapt=1 / b_bias=0 / direct=1 / weightb=1 / open_gop=0 / weightp=2 / keyint=250 / keyint_min=25 / scenecut=40 / intra_refresh=0 / rc_lookahead=40 / rc=crf / mbtree=1 / crf=1.0 / qcomp=0.60 / qpmin=3 / qpmax=51 / qpstep=4 / vbv_maxrate=9456 / vbv_bufsize=9453 / crf_max=51.0 / nal_hrd=vbr / frame-packing=0 / ip_ratio=1.40 / aq=1:1.00
Tagged date                    : UTC 2016-06-23 22:15:24
Color range                    : Limited
Color primaries                : BT.709
Transfer characteristics       : BT.709
Matrix coefficients            : BT.709

Audio
ID                             : 2
Format                         : AAC
Format/Info                    : Advanced Audio Codec
Format profile                 : LC
Codec ID                       : 40
Duration                       : 3mn 58s
Bit rate mode                  : Variable
Bit rate                       : 256 Kbps
Maximum bit rate               : 259 Kbps
Channel(s)                     : 2 channels
Channel positions              : Front: L R
Sampling rate                  : 48.0 KHz
Compression mode               : Lossy
Stream size                    : 7.27 MiB (3%)
Tagged date                    : UTC 2016-06-23 22:15:24
购买主题 本主题需向作者支付 2 金钱 才能浏览

jinxianglian 发表于 2020-7-26 17:17



General
Complete name                  : [160623]EXO- Monster.Ment Japan(日本台) 10thM!Countdown[810P][高画质][60帧].mp4
Format                         : MPEG-4
Format profile                 : Base Media
Codec ID                       : isom (isom)
File size                      : 277 MiB
Duration                       : 3mn 58s
Overall bit rate mode          : Variable
Overall bit rate               : 9 736 Kbps
Encoded date                   : UTC 2016-06-23 22:15:23
Tagged date                    : UTC 2016-06-23 22:15:23

Video
ID                             : 1
Format                         : AVC
Format/Info                    : Advanced Video Codec
Format profile                 : High@L4.2
Format settings, CABAC         : Yes
Format settings, ReFrames      : 7 frames
Codec ID                       : avc1
Codec ID/Info                  : Advanced Video Coding
Duration                       : 3mn 58s
Bit rate mode                  : Variable
Bit rate                       : 9 456 Kbps
Width                          : 1 440 pixels
Height                         : 812 pixels
Display aspect ratio           : 16:9
Frame rate mode                : Constant
Frame rate                     : 59.940fps
Standard                       : NTSC
Color space                    : YUV
Chroma subsampling             : 4:2:0
Bit depth                      : 8 bits
Scan type                      : Progressive
Bits/(Pixel*Frame)             : 0.135
Stream size                    : 269 MiB (97%)
Writing library                : x264 core 112
Encoding settings              : cabac=1 / ref=7 / deblock=1:-4:-3 / analyse=0x3:0x113 / me=umh / subme=7 / psy=1 / psy_rd=1.00:0.00 / mixed_ref=1 / me_range=29 / chroma_me=1 / trellis=1 / 8x8dct=1 / cqm=2 / deadzone=21,11 / fast_pskip=1 / chroma_qp_offset=-2 / threads=6 / sliced_threads=0 / slices=1 / nr=0 / decimate=1 / interlaced=0 / constrained_intra=1 / bframes=7 / b_pyramid=0 / b_adapt=1 / b_bias=0 / direct=1 / weightb=1 / open_gop=0 / weightp=2 / keyint=250 / keyint_min=25 / scenecut=40 / intra_refresh=0 / rc_lookahead=40 / rc=crf / mbtree=1 / crf=1.0 / qcomp=0.60 / qpmin=3 / qpmax=51 / qpstep=4 / vbv_maxrate=9456 / vbv_bufsize=9453 / crf_max=51.0 / nal_hrd=vbr / frame-packing=0 / ip_ratio=1.40 / aq=1:1.00
Tagged date                    : UTC 2016-06-23 22:15:24
Color range                    : Limited
Color primaries                : BT.709
Transfer characteristics       : BT.709
Matrix coefficients            : BT.709

Audio
ID                             : 2
Format                         : AAC
Format/Info                    : Advanced Audio Codec
Format profile                 : LC
Codec ID                       : 40
Duration                       : 3mn 58s
Bit rate mode                  : Variable
Bit rate                       : 256 Kbps
Maximum bit rate               : 259 Kbps
Channel(s)                     : 2 channels
Channel positions              : Front: L R
Sampling rate                  : 48.0 KHz
Compression mode               : Lossy
Stream size                    : 7.27 MiB (3%)
Tagged date                    : UTC 2016-06-23 22:15:24
购买主题 本主题需向作者支付 2 金钱 才能浏览
页: [1]
查看完整版本: [16/06/23]EXO-Monster.Ment Japan(日本台).10thM![277M/810P/百度网盘][60帧]