ASDFGlove 发表于 2016-3-29 06:12


General
Unique ID                      : 250161335331757965018179355454556022396 (0xBC3352170EC6EB0C9716CC38B07F267C)
Complete name                  : [150815]少女时代-Geine.20thMent M!Countdown[810P][60帧][无码版].mkv
Format                         : Matroska
Format version                 : Version 2
File size                      : 223 MiB
Duration                       : 3mn 28s
Overall bit rate mode          : Variable
Overall bit rate               : 8 997 Kbps
Encoded date                   : UTC 2016-03-28 16:37:22
Writing application            : mkvmerge v7.0.0 ('Where We Going') 32bit built on Jun  9 2014 15:08:34
Writing library                : libebml v1.3.0 + libmatroska v1.4.1

Video
ID                             : 1
Format                         : AVC
Format/Info                    : Advanced Video Codec
Format profile                 : High@L4.2
Format settings, CABAC         : Yes
Format settings, ReFrames      : 7 frames
Codec ID                       : V_MPEG4/ISO/AVC
Duration                       : 3mn 27s
Bit rate mode                  : Variable
Bit rate                       : 8 836 Kbps
Maximum bit rate               : 8 936 Kbps
Width                          : 1 440 pixels
Height                         : 812 pixels
Display aspect ratio           : 16:9
Frame rate mode                : Constant
Frame rate                     : 60.000 fps
Original frame rate            : 59.940fps
Standard                       : NTSC
Color space                    : YUV
Chroma subsampling             : 4:2:0
Bit depth                      : 8 bits
Scan type                      : Progressive
Bits/(Pixel*Frame)             : 0.126
Stream size                    : 219 MiB (98%)
Writing library                : x264 core 112
Encoding settings              : cabac=1 / ref=7 / deblock=1:-3:-1 / analyse=0x3:0x113 / me=umh / subme=7 / psy=1 / psy_rd=1.00:0.00 / mixed_ref=1 / me_range=29 / chroma_me=1 / trellis=1 / 8x8dct=1 / cqm=2 / deadzone=21,11 / fast_pskip=1 / chroma_qp_offset=-2 / threads=6 / sliced_threads=0 / slices=1 / nr=0 / decimate=1 / interlaced=0 / constrained_intra=0 / bframes=7 / b_pyramid=0 / b_adapt=1 / b_bias=0 / direct=1 / weightb=1 / open_gop=0 / weightp=2 / keyint=250 / keyint_min=25 / scenecut=40 / intra_refresh=0 / rc_lookahead=40 / rc=crf / mbtree=1 / crf=1.0 / qcomp=0.60 / qpmin=3 / qpmax=51 / qpstep=4 / vbv_maxrate=8936 / vbv_bufsize=8929 / crf_max=51.0 / nal_hrd=vbr / frame-packing=0 / ip_ratio=1.40 / aq=1:1.00
Default                        : Yes
Forced                         : No
Color range                    : Limited
Color primaries                : BT.709
Transfer characteristics       : BT.709
Matrix coefficients            : BT.709

Audio
ID                             : 2
Format                         : AAC
Format/Info                    : Advanced Audio Codec
Format profile                 : LC
Codec ID                       : A_AAC
Duration                       : 3mn 28s
Bit rate                       : 163 Kbps
Channel(s)                     : 2 channels
Channel positions              : Front: L R
Sampling rate                  : 48.0 KHz
Compression mode               : Lossy
Stream size                    : 4.04 MiB (2%)
Default                        : Yes
Forced                         : No

购买主题 本主题需向作者支付 2 金钱 才能浏览
页: [1]
查看完整版本: [15/08/15]少女时代-Genie.20thMnet.M!Countdown[223M/60帧/360网盘][无码版]