ASDFGlove 发表于 2016-2-11 06:57

[12/09/01]4Minute-Love Tension .Happy Music[720P/125M/MP4/百度网盘]

http://ww2.sinaimg.cn/mw690/7afb6155jw1f0v0o7ga9wj21kw3k0kjm.jpg
4minute - Love Tension .Happy Music[高画质].mp4
General
    Complete name : 4minute - Love Tension .Happy Music[高画质].mp4
    Format : MPEG-4
    Format profile : Base Media
    Codec ID : isom
    File size : 125 MiB
    Duration : 2mn 37s
    Overall bit rate mode : Variable
    Overall bit rate : 6 619 Kbps
    Encoded date : UTC 2012-09-10 00:37:19
    Tagged date : UTC 2012-09-10 00:37:19
Video #1
    ID : 1
    Format : AVC
    Format/Info : Advanced Video Codec
    Format profile : High@L4.1
    Format settings, CABAC : Yes
    Format settings, ReFrames : 8 frames
    Codec ID : avc1
    Codec ID/Info : Advanced Video Coding
    Duration : 2mn 37s
    Bit rate : 6 318 Kbps
    Maximum bit rate : 12.1 Mbps
    Width : 1 280 pixels
    Height : 720 pixels
    Display aspect ratio : 16:9
    Frame rate mode : Constant
    Frame rate : 59.940 fps
    Color space : YUV
    Chroma subsampling : 4:2:0
    Bit depth : 8 bits
    Scan type : Progressive
    Bits/(Pixel*Frame) : 0.114
    Stream size : 120 MiB (96%)
    Title : -=BTX.Cselina=-
    Writing library : x264 core 125 r2208 d9d2288
    Encoding settings : cabac=1 / ref=8 / deblock=1:-2:-1 / analyse=0x3:0x133 / me=umh / subme=9 / psy=1 / psy_rd=1.00:0.00 / mixed_ref=1 / me_range=28 / chroma_me=1 / trellis=1 / 8x8dct=1 / cqm=0 / deadzone=21,11 / fast_pskip=0 / chroma_qp_offset=-2 / threads=3 / lookahead_threads=1 / sliced_threads=0 / nr=0 / decimate=1 / interlaced=0 / bluray_compat=0 / constrained_intra=0 / bframes=3 / b_pyramid=2 / b_adapt=2 / b_bias=0 / direct=1 / weightb=1 / open_gop=0 / weightp=2 / keyint=599 / keyint_min=59 / scenecut=40 / intra_refresh=0 / rc_lookahead=50 / rc=abr / mbtree=1 / bitrate=6318 / ratetol=1.0 / qcomp=0.60 / qpmin=10 / qpmax=51 / qpstep=4 / ip_ratio=1.40 / aq=1:1.00
    Encoded date : UTC 2012-09-10 00:37:19
    Tagged date : UTC 2012-09-10 00:37:22
Audio #2
    ID : 2
    Format : AAC
    Format/Info : Advanced Audio Codec
    Format profile : LC
    Codec ID : 40
    Duration : 2mn 37s
    Bit rate mode : Variable
    Bit rate : 255 Kbps
    Maximum bit rate : 269 Kbps
    Channel count : 2 channels
    Channel positions : Front: L R
    Sampling rate : 48.0 KHz
    Compression mode : Lossy
    Stream size : 4.79 MiB (4%)
    Title : -=Cselina=-
    Language : Chinese
    Encoded date : UTC 2012-09-10 00:37:22
    Tagged date : UTC 2012-09-10 00:37:22

**** Hidden Message *****

sone190 发表于 2016-2-19 18:16

几年前的4米妮

loretta819 发表于 2016-6-29 15:30

前年开始喜欢她们的,没想到今年解散了
页: [1]
查看完整版本: [12/09/01]4Minute-Love Tension .Happy Music[720P/125M/MP4/百度网盘]