ASDFGlove 发表于 2016-2-11 06:46

[10-11/XX/XX]4minute-I My Me Mine+Why.日本现场合集 X2档[810P/高画质/BD]

http://ww4.sinaimg.cn/mw690/7afb6155jw1f0v07zwyjij21kw3kahdu.jpg
4Minute-I My Me Mine(Japanese).Muisc Japan[高画质].mp4
General
    Complete name : 4Minute-I My Me Mine(Japanese).Muisc Japan[高画质].mp4
    Format : MPEG-4
    Format profile : Base Media
    Codec ID : isom
    File size : 142 MiB
    Duration : 2mn 5s
    Overall bit rate mode : Variable
    Overall bit rate : 9 466 Kbps
    Encoded date : UTC 2016-02-10 22:35:03
    Tagged date : UTC 2016-02-10 22:35:03
Video #1
    ID : 1
    Format : AVC
    Format/Info : Advanced Video Codec
    Format profile : High@L4.2
    Format settings, CABAC : Yes
    Format settings, ReFrames : 7 frames
    Codec ID : avc1
    Codec ID/Info : Advanced Video Coding
    Duration : 2mn 5s
    Bit rate mode : Variable
    Bit rate : 8 952 Kbps
    Width : 1 440 pixels
    Height : 812 pixels
    Display aspect ratio : 16:9
    Frame rate mode : Constant
    Frame rate : 59.940 fps
    Standard : NTSC
    Color space : YUV
    Chroma subsampling : 4:2:0
    Bit depth : 8 bits
    Scan type : Progressive
    Bits/(Pixel*Frame) : 0.128
    Stream size : 135 MiB (95%)
    Writing library : x264 core 112
    Encoding settings : cabac=1 / ref=7 / deblock=1:-4:-3 / analyse=0x3:0x113 / me=umh / subme=7 / psy=1 / psy_rd=1.00:0.00 / mixed_ref=1 / me_range=22 / chroma_me=1 / trellis=1 / 8x8dct=1 / cqm=2 / deadzone=21,11 / fast_pskip=1 / chroma_qp_offset=-2 / threads=6 / sliced_threads=0 / slices=1 / nr=0 / decimate=1 / interlaced=0 / constrained_intra=0 / bframes=7 / b_pyramid=0 / b_adapt=1 / b_bias=0 / direct=1 / weightb=1 / open_gop=0 / weightp=2 / keyint=250 / keyint_min=25 / scenecut=40 / intra_refresh=0 / rc_lookahead=40 / rc=crf / mbtree=1 / crf=1.0 / qcomp=0.60 / qpmin=3 / qpmax=51 / qpstep=4 / vbv_maxrate=8952 / vbv_bufsize=8945 / crf_max=51.0 / nal_hrd=vbr / frame-packing=0 / ip_ratio=1.40 / aq=1:1.00
    Tagged date : UTC 2016-02-10 22:35:04
    Color primaries : BT.709
    Transfer characteristics : BT.709
    Matrix coefficients : BT.709
Audio #2
    ID : 2
    Format : AAC
    Format/Info : Advanced Audio Codec
    Format profile : LC
    Codec ID : 40
    Duration : 2mn 5s
    Bit rate mode : Variable
    Bit rate : 496 Kbps
    Maximum bit rate : 511 Kbps
    Channel count : 2 channels
    Channel positions : Front: L R
    Sampling rate : 48.0 KHz
    Compression mode : Lossy
    Delay relative to video : 17ms
    Stream size : 7.44 MiB (5%)
    Tagged date : UTC 2016-02-10 22:35:04

**** Hidden Message *****

sone190 发表于 2016-2-19 18:15

克里斯马的姐姐们

travishu 发表于 2019-1-9 15:57

这个是哪一年的哇,白银色的感觉像是限定女团时期
页: [1]
查看完整版本: [10-11/XX/XX]4minute-I My Me Mine+Why.日本现场合集 X2档[810P/高画质/BD]