ASDFGlove 发表于 2016-2-11 06:19

[12/03/01]Dal★Shabet-Hit U.M!Countdown[810P/MP4/233M/百度网盘]

http://ww3.sinaimg.cn/mw690/7afb6155jw1f0uzkan5amj21kw3ka7wi.jpg
Dal★Shabet-Hit U.M!Countdown[高画质].mp4
General
    Complete name : Dal★Shabet-Hit U.M!Countdown[高画质].mp4
    Format : MPEG-4
    Format profile : Base Media
    Codec ID : isom
    File size : 233 MiB
    Duration : 3mn 29s
    Overall bit rate mode : Variable
    Overall bit rate : 9 357 Kbps
    Encoded date : UTC 2016-02-10 20:48:21
    Tagged date : UTC 2016-02-10 20:48:21
Video #1
    ID : 1
    Format : AVC
    Format/Info : Advanced Video Codec
    Format profile : High@L4.2
    Format settings, CABAC : Yes
    Format settings, ReFrames : 7 frames
    Codec ID : avc1
    Codec ID/Info : Advanced Video Coding
    Duration : 3mn 29s
    Bit rate mode : Variable
    Bit rate : 8 758 Kbps
    Width : 1 440 pixels
    Height : 812 pixels
    Display aspect ratio : 16:9
    Frame rate mode : Constant
    Frame rate : 59.940 fps
    Standard : NTSC
    Color space : YUV
    Chroma subsampling : 4:2:0
    Bit depth : 8 bits
    Scan type : Progressive
    Bits/(Pixel*Frame) : 0.125
    Stream size : 219 MiB (94%)
    Writing library : x264 core 112
    Encoding settings : cabac=1 / ref=7 / deblock=1:-4:-3 / analyse=0x3:0x113 / me=umh / subme=7 / psy=1 / psy_rd=1.00:0.00 / mixed_ref=1 / me_range=20 / chroma_me=1 / trellis=1 / 8x8dct=1 / cqm=2 / deadzone=21,11 / fast_pskip=1 / chroma_qp_offset=-2 / threads=6 / sliced_threads=0 / slices=1 / nr=0 / decimate=1 / interlaced=0 / constrained_intra=0 / bframes=7 / b_pyramid=0 / b_adapt=1 / b_bias=0 / direct=1 / weightb=1 / open_gop=0 / weightp=2 / keyint=250 / keyint_min=25 / scenecut=40 / intra_refresh=0 / rc_lookahead=40 / rc=crf / mbtree=1 / crf=1.0 / qcomp=0.60 / qpmin=3 / qpmax=51 / qpstep=4 / vbv_maxrate=8758 / vbv_bufsize=8749 / crf_max=51.0 / nal_hrd=vbr / frame-packing=0 / ip_ratio=1.40 / aq=1:1.00
    Tagged date : UTC 2016-02-10 20:48:23
    Color primaries : BT.709
    Transfer characteristics : BT.709
    Matrix coefficients : BT.709
Audio #2
    ID : 2
    Format : AAC
    Format/Info : Advanced Audio Codec
    Format profile : LC
    Codec ID : 40
    Duration : 3mn 29s
    Bit rate mode : Variable
    Bit rate : 576 Kbps
    Channel count : 6 channels
    Channel positions : Front: L C R, Side: L R, LFE
    Sampling rate : 48.0 KHz
    Compression mode : Lossy
    Delay relative to video : 17ms
    Stream size : 14.4 MiB (6%)
    Tagged date : UTC 2016-02-10 20:48:23

**** Hidden Message *****

xiaoyuanbao521 发表于 2016-3-3 14:51

这首很喜欢啊,很好听,感谢楼主补档啊
页: [1]
查看完整版本: [12/03/01]Dal★Shabet-Hit U.M!Countdown[810P/MP4/233M/百度网盘]