ASDFGlove 发表于 2016-2-11 05:28

[[13/XX/XX]4minute-你叫什么名字+水好吗?X17档[810P+720P/MP4/百度网盘]

http://ww2.sinaimg.cn/mw690/7afb6155jw1f0uy4kkp9ij21kw3kakjm.jpg
130705]4Minute 你叫什么名字+Is It Poppin .KBS2 音乐银行 .mp4
General
    Complete name : 4Minute 你叫什么名字+Is It Poppin .KBS2 音乐银行 .mp4
    Format : MPEG-4
    Format profile : Base Media
    Codec ID : isom
    File size : 250 MiB
    Duration : 5mn 22s
    Overall bit rate mode : Variable
    Overall bit rate : 6 493 Kbps
    Encoded date : UTC 2013-07-06 01:51:19
    Tagged date : UTC 2013-07-06 01:51:19
Video #1
    ID : 1
    Format : AVC
    Format/Info : Advanced Video Codec
    Format profile : High@L4.1
    Format settings, CABAC : Yes
    Format settings, ReFrames : 7 frames
    Codec ID : avc1
    Codec ID/Info : Advanced Video Coding
    Duration : 5mn 22s
    Bit rate : 6 218 Kbps
    Maximum bit rate : 13.4 Mbps
    Width : 1 440 pixels
    Height : 812 pixels
    Display aspect ratio : 16:9
    Frame rate mode : Constant
    Frame rate : 59.940 fps
    Color space : YUV
    Chroma subsampling : 4:2:0
    Bit depth : 8 bits
    Scan type : Progressive
    Bits/(Pixel*Frame) : 0.089
    Stream size : 240 MiB (96%)
    Title : -=.bTx.CsSelina.=-
    Writing library : x264 core 133 r2334 a3ac64b
    Encoding settings : cabac=1 / ref=7 / deblock=1:0:0 / analyse=0x3:0x133 / me=umh / subme=9 / psy=1 / psy_rd=1.00:0.00 / mixed_ref=1 / me_range=28 / chroma_me=1 / trellis=1 / 8x8dct=1 / cqm=0 / deadzone=21,11 / fast_pskip=0 / chroma_qp_offset=-2 / threads=12 / lookahead_threads=1 / sliced_threads=0 / nr=0 / decimate=1 / interlaced=0 / bluray_compat=0 / constrained_intra=0 / bframes=3 / b_pyramid=2 / b_adapt=2 / b_bias=0 / direct=1 / weightb=1 / open_gop=0 / weightp=2 / keyint=599 / keyint_min=59 / scenecut=40 / intra_refresh=0 / rc_lookahead=50 / rc=abr / mbtree=1 / bitrate=6218 / ratetol=1.0 / qcomp=0.60 / qpmin=10 / qpmax=69 / qpstep=4 / vbv_maxrate=62500 / vbv_bufsize=78125 / nal_hrd=none / ip_ratio=1.40 / aq=1:1.00
    Encoded date : UTC 2013-07-06 01:51:19
    Tagged date : UTC 2013-07-06 01:52:26
Audio #2
    ID : 2
    Format : AAC
    Format/Info : Advanced Audio Codec
    Format profile : LC
    Codec ID : 40
    Duration : 5mn 22s
    Bit rate mode : Variable
    Bit rate : 256 Kbps
    Maximum bit rate : 271 Kbps
    Channel count : 2 channels
    Channel positions : Front: L R
    Sampling rate : 48.0 KHz
    Compression mode : Lossy
    Stream size : 9.84 MiB (4%)
    Title : -=.bTx.CsSelina.=-
    Language : Chinese
    Encoded date : UTC 2013-07-05 16:44:46
    Tagged date : UTC 2013-07-06 01:52:26

**** Hidden Message *****

sone190 发表于 2016-2-19 18:20

很喜欢水好吗 造型都很漂亮 忙内超可爱

恋之柚子 发表于 2016-3-2 11:19

特别想要的,但是我积分不够

862499162 发表于 2016-5-24 09:15

多谢分享
页: [1]
查看完整版本: [[13/XX/XX]4minute-你叫什么名字+水好吗?X17档[810P+720P/MP4/百度网盘]