ASDFGlove 发表于 2016-2-10 21:48


[160122]T-ara-青春修炼手册+中国娃娃.CCTV3.直通春晚[810P][高画质][50帧].mp4
  General
    Complete name : [160122]T-ara-青春修炼手册+中国娃娃.CCTV3.直通春晚[810P][高画质][50帧].mp4
    Format : MPEG-4
    Format profile : Base Media
    Codec ID : isom
    File size : 297 MiB
    Duration : 4mn 15s
    Overall bit rate mode : Variable
    Overall bit rate : 9 776 Kbps
    Encoded date : UTC 2016-02-10 10:55:05
    Tagged date : UTC 2016-02-10 10:55:05
  Video #1
    ID : 1
    Format : AVC
    Format/Info : Advanced Video Codec
    Format profile : High@L4.2
    Format settings, CABAC : Yes
    Format settings, ReFrames : 7 frames
    Codec ID : avc1
    Codec ID/Info : Advanced Video Coding
    Duration : 4mn 15s
    Bit rate mode : Variable
    Bit rate : 8 985 Kbps
    Width : 1 440 pixels
    Height : 812 pixels
    Display aspect ratio : 16:9
    Frame rate mode : Constant
    Frame rate : 50.000 fps
    Standard : NTSC
    Color space : YUV
    Chroma subsampling : 4:2:0
    Bit depth : 8 bits
    Scan type : Progressive
    Bits/(Pixel*Frame) : 0.154
    Stream size : 274 MiB (92%)
    Writing library : x264 core 112
    Encoding settings : cabac=1 / ref=7 / deblock=1:-4:-3 / analyse=0x3:0x113 / me=umh / subme=7 / psy=1 / psy_rd=1.00:0.00 / mixed_ref=1 / me_range=28 / chroma_me=1 / trellis=1 / 8x8dct=1 / cqm=2 / deadzone=21,11 / fast_pskip=1 / chroma_qp_offset=-2 / threads=6 / sliced_threads=0 / slices=1 / nr=0 / decimate=1 / interlaced=0 / constrained_intra=0 / bframes=7 / b_pyramid=0 / b_adapt=1 / b_bias=0 / direct=1 / weightb=1 / open_gop=0 / weightp=2 / keyint=250 / keyint_min=25 / scenecut=40 / intra_refresh=0 / rc_lookahead=40 / rc=crf / mbtree=1 / crf=1.0 / qcomp=0.60 / qpmin=3 / qpmax=51 / qpstep=4 / vbv_maxrate=8985 / vbv_bufsize=8978 / crf_max=51.0 / nal_hrd=vbr / frame-packing=0 / ip_ratio=1.40 / aq=1:1.00
    Tagged date : UTC 2016-02-10 10:55:07
    Color primaries : BT.709
    Transfer characteristics : BT.709
    Matrix coefficients : BT.709
  Audio #2
    ID : 2
    Format : AAC
    Format/Info : Advanced Audio Codec
    Format profile : LC
    Codec ID : 40
    Duration : 4mn 15s
    Bit rate mode : Variable
    Bit rate : 768 Kbps
    Maximum bit rate : 781 Kbps
    Channel count : 6 channels
    Channel positions : Front: L C R, Side: L R, LFE
    Sampling rate : 48.0 KHz
    Compression mode : Lossy
    Delay relative to video : 20ms
    Stream size : 23.4 MiB (8%)
    Tagged date : UTC 2016-02-10 10:55:07

PS:这是T-ara在2016年中国演唱会的合集,总共8个文件,我就不一一发了,趁现在百度没有和谐,赶紧补一下.

购买主题 本主题需向作者支付 1 金钱 才能浏览

阿龙 发表于 2016-2-11 18:37


[160122]T-ara-青春修炼手册+中国娃娃.CCTV3.直通春晚[810P][高画质][50帧].mp4
  General
    Complete name : [160122]T-ara-青春修炼手册+中国娃娃.CCTV3.直通春晚[810P][高画质][50帧].mp4
    Format : MPEG-4
    Format profile : Base Media
    Codec ID : isom
    File size : 297 MiB
    Duration : 4mn 15s
    Overall bit rate mode : Variable
    Overall bit rate : 9 776 Kbps
    Encoded date : UTC 2016-02-10 10:55:05
    Tagged date : UTC 2016-02-10 10:55:05
  Video #1
    ID : 1
    Format : AVC
    Format/Info : Advanced Video Codec
    Format profile : High@L4.2
    Format settings, CABAC : Yes
    Format settings, ReFrames : 7 frames
    Codec ID : avc1
    Codec ID/Info : Advanced Video Coding
    Duration : 4mn 15s
    Bit rate mode : Variable
    Bit rate : 8 985 Kbps
    Width : 1 440 pixels
    Height : 812 pixels
    Display aspect ratio : 16:9
    Frame rate mode : Constant
    Frame rate : 50.000 fps
    Standard : NTSC
    Color space : YUV
    Chroma subsampling : 4:2:0
    Bit depth : 8 bits
    Scan type : Progressive
    Bits/(Pixel*Frame) : 0.154
    Stream size : 274 MiB (92%)
    Writing library : x264 core 112
    Encoding settings : cabac=1 / ref=7 / deblock=1:-4:-3 / analyse=0x3:0x113 / me=umh / subme=7 / psy=1 / psy_rd=1.00:0.00 / mixed_ref=1 / me_range=28 / chroma_me=1 / trellis=1 / 8x8dct=1 / cqm=2 / deadzone=21,11 / fast_pskip=1 / chroma_qp_offset=-2 / threads=6 / sliced_threads=0 / slices=1 / nr=0 / decimate=1 / interlaced=0 / constrained_intra=0 / bframes=7 / b_pyramid=0 / b_adapt=1 / b_bias=0 / direct=1 / weightb=1 / open_gop=0 / weightp=2 / keyint=250 / keyint_min=25 / scenecut=40 / intra_refresh=0 / rc_lookahead=40 / rc=crf / mbtree=1 / crf=1.0 / qcomp=0.60 / qpmin=3 / qpmax=51 / qpstep=4 / vbv_maxrate=8985 / vbv_bufsize=8978 / crf_max=51.0 / nal_hrd=vbr / frame-packing=0 / ip_ratio=1.40 / aq=1:1.00
    Tagged date : UTC 2016-02-10 10:55:07
    Color primaries : BT.709
    Transfer characteristics : BT.709
    Matrix coefficients : BT.709
  Audio #2
    ID : 2
    Format : AAC
    Format/Info : Advanced Audio Codec
    Format profile : LC
    Codec ID : 40
    Duration : 4mn 15s
    Bit rate mode : Variable
    Bit rate : 768 Kbps
    Maximum bit rate : 781 Kbps
    Channel count : 6 channels
    Channel positions : Front: L C R, Side: L R, LFE
    Sampling rate : 48.0 KHz
    Compression mode : Lossy
    Delay relative to video : 20ms
    Stream size : 23.4 MiB (8%)
    Tagged date : UTC 2016-02-10 10:55:07

PS:这是T-ara在2016年中国演唱会的合集,总共8个文件,我就不一一发了,趁现在百度没有和谐,赶紧补一下.

购买主题 本主题需向作者支付 1 金钱 才能浏览

JGIN 发表于 2017-6-19 21:54


[160122]T-ara-青春修炼手册+中国娃娃.CCTV3.直通春晚[810P][高画质][50帧].mp4
  General
    Complete name : [160122]T-ara-青春修炼手册+中国娃娃.CCTV3.直通春晚[810P][高画质][50帧].mp4
    Format : MPEG-4
    Format profile : Base Media
    Codec ID : isom
    File size : 297 MiB
    Duration : 4mn 15s
    Overall bit rate mode : Variable
    Overall bit rate : 9 776 Kbps
    Encoded date : UTC 2016-02-10 10:55:05
    Tagged date : UTC 2016-02-10 10:55:05
  Video #1
    ID : 1
    Format : AVC
    Format/Info : Advanced Video Codec
    Format profile : High@L4.2
    Format settings, CABAC : Yes
    Format settings, ReFrames : 7 frames
    Codec ID : avc1
    Codec ID/Info : Advanced Video Coding
    Duration : 4mn 15s
    Bit rate mode : Variable
    Bit rate : 8 985 Kbps
    Width : 1 440 pixels
    Height : 812 pixels
    Display aspect ratio : 16:9
    Frame rate mode : Constant
    Frame rate : 50.000 fps
    Standard : NTSC
    Color space : YUV
    Chroma subsampling : 4:2:0
    Bit depth : 8 bits
    Scan type : Progressive
    Bits/(Pixel*Frame) : 0.154
    Stream size : 274 MiB (92%)
    Writing library : x264 core 112
    Encoding settings : cabac=1 / ref=7 / deblock=1:-4:-3 / analyse=0x3:0x113 / me=umh / subme=7 / psy=1 / psy_rd=1.00:0.00 / mixed_ref=1 / me_range=28 / chroma_me=1 / trellis=1 / 8x8dct=1 / cqm=2 / deadzone=21,11 / fast_pskip=1 / chroma_qp_offset=-2 / threads=6 / sliced_threads=0 / slices=1 / nr=0 / decimate=1 / interlaced=0 / constrained_intra=0 / bframes=7 / b_pyramid=0 / b_adapt=1 / b_bias=0 / direct=1 / weightb=1 / open_gop=0 / weightp=2 / keyint=250 / keyint_min=25 / scenecut=40 / intra_refresh=0 / rc_lookahead=40 / rc=crf / mbtree=1 / crf=1.0 / qcomp=0.60 / qpmin=3 / qpmax=51 / qpstep=4 / vbv_maxrate=8985 / vbv_bufsize=8978 / crf_max=51.0 / nal_hrd=vbr / frame-packing=0 / ip_ratio=1.40 / aq=1:1.00
    Tagged date : UTC 2016-02-10 10:55:07
    Color primaries : BT.709
    Transfer characteristics : BT.709
    Matrix coefficients : BT.709
  Audio #2
    ID : 2
    Format : AAC
    Format/Info : Advanced Audio Codec
    Format profile : LC
    Codec ID : 40
    Duration : 4mn 15s
    Bit rate mode : Variable
    Bit rate : 768 Kbps
    Maximum bit rate : 781 Kbps
    Channel count : 6 channels
    Channel positions : Front: L C R, Side: L R, LFE
    Sampling rate : 48.0 KHz
    Compression mode : Lossy
    Delay relative to video : 20ms
    Stream size : 23.4 MiB (8%)
    Tagged date : UTC 2016-02-10 10:55:07

PS:这是T-ara在2016年中国演唱会的合集,总共8个文件,我就不一一发了,趁现在百度没有和谐,赶紧补一下.

购买主题 本主题需向作者支付 1 金钱 才能浏览
页: [1]
查看完整版本: [16/01/XX]T-ara-Roly Poly.CCTV3 JSTV.X8档合集[MP4/50帧/810P/高画质/百度网盘]