ASDFGlove 发表于 2016-2-6 05:28

[16/02/03]4minute-No Love.MBC Show Champion [240M/60帧/高画质/百度网盘]

http://ww1.sinaimg.cn/mw690/7afb6155jw1f0p6037az4j21kw3kmkjm.jpg
General
Complete name                  4Minute-No Love.MBC Show Champion [高画质].mp4
Format                         : MPEG-4
Format profile               : Base Media
Codec ID                     : isom
File size                      : 240 MiB
Duration                     : 3mn 14s
Overall bit rate mode          : Variable
Overall bit rate               : 10.4 Mbps
Encoded date                   : UTC 2016-02-05 21:23:57
Tagged date                  : UTC 2016-02-05 21:23:57

Video
ID                           : 1
Format                         : AVC
Format/Info                  : Advanced Video Codec
Format profile               : High@L4.2
Format settings, CABAC         : Yes
Format settings, ReFrames      : 7 frames
Codec ID                     : avc1
Codec ID/Info                  : Advanced Video Coding
Duration                     : 3mn 14s
Bit rate mode                  : Variable
Bit rate                     : 9 876 Kbps
Width                        : 1 440 pixels
Height                         : 812 pixels
Display aspect ratio         : 16:9
Frame rate mode                : Constant
Frame rate                     : 59.940 fps
Standard                     : NTSC
Color space                  : YUV
Chroma subsampling             : 4:2:0
Bit depth                      : 8 bits
Scan type                      : Progressive
Bits/(Pixel*Frame)             : 0.141
Stream size                  : 229 MiB (95%)
Writing library                : x264 core 112
Encoding settings            : cabac=1 / ref=7 / deblock=1:-4:-3 / analyse=0x3:0x113 / me=esa / subme=7 / psy=1 / psy_rd=1.00:0.00 / mixed_ref=1 / me_range=26 / chroma_me=1 / trellis=1 / 8x8dct=1 / cqm=2 / deadzone=21,11 / fast_pskip=1 / chroma_qp_offset=-2 / threads=6 / sliced_threads=0 / slices=1 / nr=0 / decimate=1 / interlaced=0 / constrained_intra=0 / bframes=7 / b_pyramid=0 / b_adapt=1 / b_bias=0 / direct=1 / weightb=1 / open_gop=0 / weightp=2 / keyint=250 / keyint_min=25 / scenecut=40 / intra_refresh=0 / rc_lookahead=40 / rc=crf / mbtree=1 / crf=1.0 / qcomp=0.60 / qpmin=3 / qpmax=51 / qpstep=4 / vbv_maxrate=9876 / vbv_bufsize=9863 / crf_max=51.0 / nal_hrd=vbr / frame-packing=0 / ip_ratio=1.40 / aq=1:1.00
Tagged date                  : UTC 2016-02-05 21:23:58
Color range                  : Limited
Color primaries                : BT.709
Transfer characteristics       : BT.709
Matrix coefficients            : BT.709

Audio
ID                           : 2
Format                         : AAC
Format/Info                  : Advanced Audio Codec
Format profile               : LC
Codec ID                     : 40
Duration                     : 3mn 14s
Bit rate mode                  : Variable
Bit rate                     : 464 Kbps
Maximum bit rate               : 474 Kbps
Channel(s)                     : 2 channels
Channel positions            : Front: L R
Sampling rate                  : 48.0 KHz
Compression mode               : Lossy
Stream size                  : 10.7 MiB (4%)
Tagged date                  : UTC 2016-02-05 21:23:58

**** Hidden Message *****

Paruki 发表于 2016-2-13 11:29

南队real美颜

wenqiray 发表于 2016-2-13 20:40

················

嗯啊 发表于 2016-2-14 23:41

一个新人,没有积分,不开心,一直想看这个的说

beast笑 发表于 2016-2-21 16:06

xinrenhaokubi ~~~~~~~~~~~

最时尚 发表于 2018-3-28 17:28

确实是难得的好资源

最时尚 发表于 2018-3-28 17:32

绝对值得收藏的精品资源跪漆收藏
页: [1]
查看完整版本: [16/02/03]4minute-No Love.MBC Show Champion [240M/60帧/高画质/百度网盘]