ASDFGlove 发表于 2016-1-31 04:57


[110319]4minute-Why.Happy Muisc[810P][高画质][60帧].mp4
  General
    Complete name : [110319]4minute-Why.Happy Muisc[810P][高画质][60帧].mp4
    Format : MPEG-4
    Format profile : Base Media
    Codec ID : isom
    File size : 190 MiB
    Duration : 2mn 31s
    Overall bit rate mode : Variable
    Overall bit rate : 10.5 Mbps
    Encoded date : UTC 2016-01-30 20:53:01
    Tagged date : UTC 2016-01-30 20:53:01
  Video #1
    ID : 1
    Format : AVC
    Format/Info : Advanced Video Codec
    Format profile : High@L4.2
    Format settings, CABAC : Yes
    Format settings, ReFrames : 7 frames
    Codec ID : avc1
    Codec ID/Info : Advanced Video Coding
    Duration : 2mn 31s
    Bit rate mode : Variable
    Bit rate : 9 876 Kbps
    Width : 1 440 pixels
    Height : 812 pixels
    Display aspect ratio : 16:9
    Frame rate mode : Constant
    Frame rate : 59.940 fps
    Standard : NTSC
    Color space : YUV
    Chroma subsampling : 4:2:0
    Bit depth : 8 bits
    Scan type : Progressive
    Bits/(Pixel*Frame) : 0.141
    Stream size : 179 MiB (95%)
    Writing library : x264 core 112
    Encoding settings : cabac=1 / ref=7 / deblock=1:-4:-3 / analyse=0x3:0x113 / me=esa / subme=7 / psy=1 / psy_rd=1.00:0.00 / mixed_ref=1 / me_range=29 / chroma_me=1 / trellis=1 / 8x8dct=1 / cqm=2 / deadzone=21,11 / fast_pskip=1 / chroma_qp_offset=-2 / threads=6 / sliced_threads=0 / slices=1 / nr=0 / decimate=1 / interlaced=0 / constrained_intra=0 / bframes=7 / b_pyramid=0 / b_adapt=1 / b_bias=0 / direct=1 / weightb=1 / open_gop=0 / weightp=2 / keyint=250 / keyint_min=25 / scenecut=40 / intra_refresh=0 / rc_lookahead=40 / rc=crf / mbtree=1 / crf=1.0 / qcomp=0.60 / qpmin=3 / qpmax=51 / qpstep=4 / vbv_maxrate=9876 / vbv_bufsize=9863 / crf_max=51.0 / nal_hrd=vbr / frame-packing=0 / ip_ratio=1.40 / aq=1:1.00
    Tagged date : UTC 2016-01-30 20:53:04
    Color primaries : BT.709
    Transfer characteristics : BT.709
    Matrix coefficients : BT.709
  Audio #2
    ID : 2
    Format : AAC
    Format/Info : Advanced Audio Codec
    Format profile : LC
    Codec ID : 40
    Duration : 2mn 31s
    Bit rate mode : Variable
    Bit rate : 560 Kbps
    Maximum bit rate : 575 Kbps
    Channel count : 2 channels
    Channel positions : Front: L R
    Sampling rate : 48.0 KHz
    Compression mode : Lossy
    Delay relative to video : 17ms
    Stream size : 10.1 MiB (5%)
    Tagged date : UTC 2016-01-30 20:53:04

购买主题 本主题需向作者支付 2 金钱 才能浏览

sone190 发表于 2016-7-9 01:04


[110319]4minute-Why.Happy Muisc[810P][高画质][60帧].mp4
  General
    Complete name : [110319]4minute-Why.Happy Muisc[810P][高画质][60帧].mp4
    Format : MPEG-4
    Format profile : Base Media
    Codec ID : isom
    File size : 190 MiB
    Duration : 2mn 31s
    Overall bit rate mode : Variable
    Overall bit rate : 10.5 Mbps
    Encoded date : UTC 2016-01-30 20:53:01
    Tagged date : UTC 2016-01-30 20:53:01
  Video #1
    ID : 1
    Format : AVC
    Format/Info : Advanced Video Codec
    Format profile : High@L4.2
    Format settings, CABAC : Yes
    Format settings, ReFrames : 7 frames
    Codec ID : avc1
    Codec ID/Info : Advanced Video Coding
    Duration : 2mn 31s
    Bit rate mode : Variable
    Bit rate : 9 876 Kbps
    Width : 1 440 pixels
    Height : 812 pixels
    Display aspect ratio : 16:9
    Frame rate mode : Constant
    Frame rate : 59.940 fps
    Standard : NTSC
    Color space : YUV
    Chroma subsampling : 4:2:0
    Bit depth : 8 bits
    Scan type : Progressive
    Bits/(Pixel*Frame) : 0.141
    Stream size : 179 MiB (95%)
    Writing library : x264 core 112
    Encoding settings : cabac=1 / ref=7 / deblock=1:-4:-3 / analyse=0x3:0x113 / me=esa / subme=7 / psy=1 / psy_rd=1.00:0.00 / mixed_ref=1 / me_range=29 / chroma_me=1 / trellis=1 / 8x8dct=1 / cqm=2 / deadzone=21,11 / fast_pskip=1 / chroma_qp_offset=-2 / threads=6 / sliced_threads=0 / slices=1 / nr=0 / decimate=1 / interlaced=0 / constrained_intra=0 / bframes=7 / b_pyramid=0 / b_adapt=1 / b_bias=0 / direct=1 / weightb=1 / open_gop=0 / weightp=2 / keyint=250 / keyint_min=25 / scenecut=40 / intra_refresh=0 / rc_lookahead=40 / rc=crf / mbtree=1 / crf=1.0 / qcomp=0.60 / qpmin=3 / qpmax=51 / qpstep=4 / vbv_maxrate=9876 / vbv_bufsize=9863 / crf_max=51.0 / nal_hrd=vbr / frame-packing=0 / ip_ratio=1.40 / aq=1:1.00
    Tagged date : UTC 2016-01-30 20:53:04
    Color primaries : BT.709
    Transfer characteristics : BT.709
    Matrix coefficients : BT.709
  Audio #2
    ID : 2
    Format : AAC
    Format/Info : Advanced Audio Codec
    Format profile : LC
    Codec ID : 40
    Duration : 2mn 31s
    Bit rate mode : Variable
    Bit rate : 560 Kbps
    Maximum bit rate : 575 Kbps
    Channel count : 2 channels
    Channel positions : Front: L R
    Sampling rate : 48.0 KHz
    Compression mode : Lossy
    Delay relative to video : 17ms
    Stream size : 10.1 MiB (5%)
    Tagged date : UTC 2016-01-30 20:53:04

购买主题 本主题需向作者支付 2 金钱 才能浏览
页: [1]
查看完整版本: [11/03/19]4minute-Why.Happy Muisc[190M/810P/60帧/MP4/高画质/百度网盘]