韩国MTV网[韩国音乐论坛]

 找回密码
 注册

QQ登录

只需一步,快速开始

查看: 588|回复: 23

[mbc] 200718.MBC 音乐中心.BLACKPINK - How You Like That + NO.1(19.4M)[790M/TP/BD]

[复制链接]
发表于 2020-7-28 12:39 | 显示全部楼层 |阅读模式


E:\20200718\[krmtv]BLACKPINK - How You Like That (200718 MBC 音乐中心)_19.4.tp
   General #3089
      ID : 3089 (0xC11)
      Complete name : E:\20200718\[krmtv]BLACKPINK - How You Like That (200718 MBC 音乐中心)_19.4.tp
      Format : MPEG-TS
      File size : 447 MiB
      Duration : 3mn 13s
      Start time : UTC 2020-07-18 07:42:52
      End time : UTC 2020-07-18 07:46:05
      Overall bit rate mode : Variable
      Overall bit rate : 19.4 Mbps
   Video #17
      ID : 17 (0x11)
      Menu ID : 1 (0x1)
      Format : MPEG Video
      Format version : Version 2
      Format profile : Main@High
      Format settings, BVOP : Yes
      Format settings, Matrix : Custom
      Codec ID : 2
      Duration : 3mn 13s
      Bit rate mode : Variable
      Bit rate : 18.0 Mbps
      Width : 1 920 pixels
      Height : 1 080 pixels
      Display aspect ratio : 16:9
      Frame rate : 29.970 fps
      Color space : YUV
      Chroma subsampling : 4:2:0
      Bit depth : 8 bits
      Scan type : Interlaced
      Scan order : Top Field First
      Compression mode : Lossy
      Bits/(Pixel*Frame) : 0.289
      Stream size : 415 MiB (93%)
   Audio #20
      ID : 20 (0x14)
      Menu ID : 1 (0x1)
      Format : AC-3
      Format/Info : Audio Coding 3
      Mode extension : CM (complete main)
      Codec ID : 129
      Duration : 3mn 13s
      Bit rate mode : Constant
      Bit rate : 448 Kbps
      Channel(s) : 2 channels
      Channel positions : Front: L R
      Sampling rate : 48.0 KHz
      Bit depth : 16 bits
      Compression mode : Lossy
      Delay relative to video : -11ms
      Stream size : 10.3 MiB (2%)
      Language : Korean
购买主题 已有 21 人购买  本主题需向作者支付 30 金钱 才能浏览
回复

使用道具 举报

发表于 2020-7-28 13:58 | 显示全部楼层
恭喜粉墨1位,这场NO.1之后的表演也很亮眼
回复 支持 反对

使用道具 举报

发表于 2020-7-28 14:36 | 显示全部楼层
造型非常漂亮,舞蹈非常厉害,姐姐们加油
回复 支持 反对

使用道具 举报

发表于 2020-7-28 15:24 | 显示全部楼层
这个造型和mvli一样,很好看
回复 支持 反对

使用道具 举报

发表于 2020-7-28 18:11 | 显示全部楼层
粉墨的又一个一位,这场紫色头发的rose女士真的美到我的心里去了
回复 支持 反对

使用道具 举报

发表于 2020-7-28 20:58 | 显示全部楼层
好喜欢这场粉墨的服装啊 Cody给力噢 JENNIE真的是穿什么都好看
回复 支持 反对

使用道具 举报

发表于 2020-7-28 22:19 | 显示全部楼层
这好像是第5,还是第6次一位啦,这首歌太棒啦
回复 支持 反对

使用道具 举报

发表于 2020-7-29 08:12 | 显示全部楼层
恭喜BLACKPINK拿下上周音乐中心现场一位宝座。
回复 支持 反对

使用道具 举报

发表于 2020-7-29 09:07 | 显示全部楼层
这场打歌服jennie的衣服很喜欢,虽然是智秀的粉丝,但是不得不说这场是为了jennie下载的
回复 支持 反对

使用道具 举报

发表于 2020-7-30 13:25 | 显示全部楼层
啊啊啊 辣lisa!jennie长发微卷简直美呆了!
回复 支持 反对

使用道具 举报

您需要登录后才可以回帖 登录 | 注册

本版积分规则

小黑屋|手机版|Archiver|韩国MTV网  

GMT+8, 2020-9-28 07:43 , Processed in 0.045599 second(s), 23 queries .

Powered by Discuz! X3.1

© 2001-2013 Comsenz Inc.

快速回复 返回顶部 返回列表