韩国MTV网[韩国音乐论坛]

 找回密码
 注册

QQ登录

只需一步,快速开始

查看: 344|回复: 6

[mbc] 200718.MBC 音乐中心.Red Velvet - Monster(19.4M)[439M/TP/BD]

[复制链接]
发表于 2020-7-28 12:37 | 显示全部楼层 |阅读模式

E:\20200718\[krmtv]Red Velvet  - Monster (200718 MBC 音乐中心)_19.4.tp
   General #3089
      ID : 3089 (0xC11)
      Complete name : E:\20200718\[krmtv]Red Velvet  - Monster (200718 MBC 音乐中心)_19.4.tp
      Format : MPEG-TS
      File size : 439 MiB
      Duration : 3mn 10s
      Start time : UTC 2020-07-18 07:45:57
      End time : UTC 2020-07-18 07:49:07
      Overall bit rate mode : Variable
      Overall bit rate : 19.4 Mbps
   Video #17
      ID : 17 (0x11)
      Menu ID : 1 (0x1)
      Format : MPEG Video
      Format version : Version 2
      Format profile : Main@High
      Format settings, BVOP : Yes
      Format settings, Matrix : Custom
      Codec ID : 2
      Duration : 3mn 9s
      Bit rate mode : Variable
      Bit rate : 18.0 Mbps
      Width : 1 920 pixels
      Height : 1 080 pixels
      Display aspect ratio : 16:9
      Frame rate : 29.970 fps
      Color space : YUV
      Chroma subsampling : 4:2:0
      Bit depth : 8 bits
      Scan type : Interlaced
      Scan order : Top Field First
      Compression mode : Lossy
      Bits/(Pixel*Frame) : 0.289
      Stream size : 407 MiB (93%)
   Audio #20
      ID : 20 (0x14)
      Menu ID : 1 (0x1)
      Format : AC-3
      Format/Info : Audio Coding 3
      Mode extension : CM (complete main)
      Codec ID : 129
      Duration : 3mn 9s
      Bit rate mode : Constant
      Bit rate : 448 Kbps
      Channel(s) : 2 channels
      Channel positions : Front: L R
      Sampling rate : 48.0 KHz
      Bit depth : 16 bits
      Compression mode : Lossy
      Delay relative to video : -31ms
      Stream size : 10.1 MiB (2%)
      Language : Korean
购买主题 已有 5 人购买  本主题需向作者支付 20 金钱 才能浏览
回复

使用道具 举报

发表于 2020-7-28 18:15 | 显示全部楼层
红贝贝的小分队真的太赞了,红色头发的涩琪美到不行了
回复 支持 反对

使用道具 举报

发表于 2020-7-28 20:01 | 显示全部楼层
这个小分队太棒了  特别是艾琳 太惊艳了 都快不认识她了
回复 支持 反对

使用道具 举报

发表于 2020-7-28 21:00 | 显示全部楼层
惊艳的小分队LIVE表演啊 连伴舞的服装都那么好看
回复 支持 反对

使用道具 举报

发表于 2020-7-28 22:20 | 显示全部楼层
这场的打歌服实在是太惊艳啦
回复 支持 反对

使用道具 举报

发表于 2020-7-30 13:29 | 显示全部楼层
cody持续发力  每一场都感受到了不同的魅力
回复 支持 反对

使用道具 举报

发表于 2020-9-25 21:45 | 显示全部楼层
这场也不能错过了,打歌服很有范的说,红贝贝的造型一直都很有品质的说
回复 支持 反对

使用道具 举报

您需要登录后才可以回帖 登录 | 注册

本版积分规则

小黑屋|手机版|Archiver|韩国MTV网  

GMT+8, 2020-9-30 06:16 , Processed in 0.046469 second(s), 23 queries .

Powered by Discuz! X3.1

© 2001-2013 Comsenz Inc.

快速回复 返回顶部 返回列表