韩国MTV网[韩国音乐论坛]

 找回密码
 注册

QQ登录

只需一步,快速开始

查看: 331|回复: 6

[kbs] 200717.KBS 音乐银行.Red Velvet - Interview+Monster+NO.1(19.4M)[1.37G/TP/BD]

[复制链接]
发表于 2020-7-28 12:32 | 显示全部楼层 |阅读模式



E:\20200717\[krmtv]Red Velvet  - Monster + NO.1(200717 KBS 音乐银行)_19.4.tp
   General #2065
      ID : 2065 (0x811)
      Complete name : E:\20200717\[krmtv]Red Velvet  - Monster + NO.1(200717 KBS 音乐银行)_19.4.tp
      Format : MPEG-TS
      File size : 1.19 GiB
      Duration : 8mn 46s
      Start time : UTC 2020-07-17 09:17:30
      End time : UTC 2020-07-17 09:26:16
      Overall bit rate : 19.4 Mbps
   Video #33
      ID : 33 (0x21)
      Menu ID : 2 (0x2)
      Format : MPEG Video
      Format version : Version 2
      Format profile : Main@High
      Format settings, BVOP : Yes
      Format settings, Matrix : Custom
      Codec ID : 2
      Duration : 8mn 46s
      Bit rate : 18.0 Mbps
      Width : 1 920 pixels
      Height : 1 080 pixels
      Display aspect ratio : 16:9
      Active Format Description : Letterbox 16:9 image
      Frame rate : 29.970 fps
      Standard : Component
      Color space : YUV
      Chroma subsampling : 4:2:0
      Bit depth : 8 bits
      Scan type : Interlaced
      Scan order : Top Field First
      Compression mode : Lossy
      Bits/(Pixel*Frame) : 0.290
      Stream size : 1.11 GiB (93%)
      Language : Korean
      Name : ko:Video
   Audio #36
      ID : 36 (0x24)
      Menu ID : 2 (0x2)
      Format : AC-3
      Format/Info : Audio Coding 3
      Mode extension : CM (complete main)
      Codec ID : 129
      Duration : 8mn 46s
      Bit rate mode : Constant
      Bit rate : 384 Kbps
      Channel(s) : 2 channels
      Channel positions : Front: L R
      Sampling rate : 48.0 KHz
      Bit depth : 16 bits
      Compression mode : Lossy
      Delay relative to video : -26ms
      Stream size : 24.1 MiB (2%)
      Language : Korean
      Name : ko:Audio
购买主题 已有 5 人购买  本主题需向作者支付 25 金钱 才能浏览
回复

使用道具 举报

发表于 2020-7-28 13:02 | 显示全部楼层
小分队也可以得一位,红贝贝真的太牛了,irene变成了金发有点不习惯,觉得还是黑头发更适合,造型百变公司真的用心了
回复 支持 反对

使用道具 举报

发表于 2020-7-28 19:12 | 显示全部楼层
早就期待她回归了  这次风格变了好多呀
回复 支持 反对

使用道具 举报

发表于 2020-7-28 21:03 | 显示全部楼层
一个红发 一个白发 白色发型把IRENE衬托得更白皙了
回复 支持 反对

使用道具 举报

发表于 2020-7-30 13:23 | 显示全部楼层
哇 没想到再见金发艾琳 小分队首个一位!!
回复 支持 反对

使用道具 举报

发表于 2020-8-31 00:36 | 显示全部楼层
能看到小分队也是很开心的事情呢
回复 支持 反对

使用道具 举报

发表于 2020-9-25 21:46 | 显示全部楼层
两人都很喜欢的说,什么时候全员一起回归呢,非常期待
回复 支持 反对

使用道具 举报

您需要登录后才可以回帖 登录 | 注册

本版积分规则

小黑屋|手机版|Archiver|韩国MTV网  

GMT+8, 2020-9-28 03:53 , Processed in 0.038891 second(s), 23 queries .

Powered by Discuz! X3.1

© 2001-2013 Comsenz Inc.

快速回复 返回顶部 返回列表