韩国MTV网[韩国音乐论坛]

 找回密码
 注册

QQ登录

只需一步,快速开始

查看: 255|回复: 10

[mbc] 200711.MBC 音乐中心.CHUNG HA - PLAY(19.4M)[505M/TP/BD]

[复制链接]
发表于 2020-7-27 09:34 | 显示全部楼层 |阅读模式

E:\20200711\[krmtv]CHUNG HA - PLAY (200711 MBC 音乐中心)_19.4.tp
   General #3089
      ID : 3089 (0xC11)
      Complete name : E:\20200711\[krmtv]CHUNG HA - PLAY (200711 MBC 音乐中心)_19.4.tp
      Format : MPEG-TS
      File size : 506 MiB
      Duration : 3mn 38s
      Start time : UTC 2020-07-11 07:11:49
      End time : UTC 2020-07-11 07:15:28
      Overall bit rate mode : Variable
      Overall bit rate : 19.4 Mbps
   Video #17
      ID : 17 (0x11)
      Menu ID : 1 (0x1)
      Format : MPEG Video
      Format version : Version 2
      Format profile : Main@High
      Format settings, BVOP : Yes
      Format settings, Matrix : Custom
      Codec ID : 2
      Duration : 3mn 38s
      Bit rate mode : Variable
      Bit rate : 18.0 Mbps
      Width : 1 920 pixels
      Height : 1 080 pixels
      Display aspect ratio : 16:9
      Frame rate : 29.970 fps
      Color space : YUV
      Chroma subsampling : 4:2:0
      Bit depth : 8 bits
      Scan type : Interlaced
      Scan order : Top Field First
      Compression mode : Lossy
      Bits/(Pixel*Frame) : 0.289
      Stream size : 469 MiB (93%)
   Audio #20
      ID : 20 (0x14)
      Menu ID : 1 (0x1)
      Format : AC-3
      Format/Info : Audio Coding 3
      Mode extension : CM (complete main)
      Codec ID : 129
      Duration : 3mn 38s
      Bit rate mode : Constant
      Bit rate : 448 Kbps
      Channel(s) : 2 channels
      Channel positions : Front: L R
      Sampling rate : 48.0 KHz
      Bit depth : 16 bits
      Compression mode : Lossy
      Delay relative to video : -12ms
      Stream size : 11.7 MiB (2%)
      Language : Korean
购买主题 已有 9 人购买  本主题需向作者支付 20 金钱 才能浏览
回复

使用道具 举报

发表于 2020-7-27 09:46 | 显示全部楼层
请夏的舞台表现力真的是越来越强了,这次回归蝴蝶的标志真的很帅气,期待更好的舞台
回复 支持 反对

使用道具 举报

发表于 2020-7-27 17:34 | 显示全部楼层
7月的舞台喜欢的团队和solo真的太多了
回复 支持 反对

使用道具 举报

发表于 2020-7-27 22:03 | 显示全部楼层
请夏的舞台实力绝对没话说 最近回归的组合、歌手实力都好强啊
回复 支持 反对

使用道具 举报

发表于 2020-7-30 10:01 | 显示全部楼层
终于等到了请夏的回归舞台,实力颜值都很高的女星,期待更多她的作品!
回复 支持 反对

使用道具 举报

发表于 2020-7-30 13:05 | 显示全部楼层
看下来感觉自己瘦了一圈 请夏的舞蹈越来越厉害了
回复 支持 反对

使用道具 举报

发表于 2020-8-1 11:30 | 显示全部楼层
这次回归舞台布景很用心呢~谢谢楼主的分享~
回复 支持 反对

使用道具 举报

发表于 2020-8-6 11:10 | 显示全部楼层
这场舞台的舞美蝴蝶是最美的一只了吧。。。酒儿的镜头感就是顶级,每个卡点都特别好!
回复 支持 反对

使用道具 举报

发表于 2020-8-16 13:43 | 显示全部楼层
有一套很喜欢的衣服没有打歌,觉得还是可惜了~
回复 支持 反对

使用道具 举报

发表于 2020-8-21 22:08 | 显示全部楼层
谢谢分享了  很喜欢这个
回复 支持 反对

使用道具 举报

您需要登录后才可以回帖 登录 | 注册

本版积分规则

小黑屋|手机版|Archiver|韩国MTV网  

GMT+8, 2020-9-28 06:53 , Processed in 0.038318 second(s), 25 queries .

Powered by Discuz! X3.1

© 2001-2013 Comsenz Inc.

快速回复 返回顶部 返回列表