韩国MTV网[韩国音乐论坛]

 找回密码
 注册

QQ登录

只需一步,快速开始

查看: 2828|回复: 38

[其它] 20171112.MTV欧洲音乐大奖.Camila Cabello - Havana(完整版)[889M/TS/BD]

[复制链接]
发表于 2019-12-18 11:08 | 显示全部楼层 |阅读模式

H:\[krmtv]Camila Cabello - Havana (171112 MTV欧洲音乐大奖2017).ts
   General #1
      ID : 1 (0x1)
      Complete name : H:\[krmtv]Camila Cabello - Havana (171112 MTV欧洲音乐大奖2017).ts
      Format : MPEG-TS
      File size : 889 MiB
      Duration : 3mn 54s
      Overall bit rate : 31.7 Mbps
   Video #3020
      ID : 3020 (0xBCC)
      Menu ID : 1 (0x1)
      Format : AVC
      Format/Info : Advanced Video Codec
      Format profile : High@L4.1
      Format settings, CABAC : Yes
      Format settings, ReFrames : 4 frames
      Codec ID : 27
      Duration : 3mn 52s
      Bit rate : 29.9 Mbps
      Width : 1 920 pixels
      Height : 1 080 pixels
      Display aspect ratio : 16:9
      Frame rate : 25.000 fps
      Color space : YUV
      Chroma subsampling : 4:2:0
      Bit depth : 8 bits
      Scan type : Interlaced
      Scan order : Top Field First
      Bits/(Pixel*Frame) : 0.577
      Stream size : 829 MiB (93%)
      Color primaries : BT.709-5, BT.1361, IEC 61966-2-4, SMPTE RP177
      Transfer characteristics : BT.709-5, BT.1361
      Matrix coefficients : BT.709-5, BT.1361, IEC 61966-2-4 709, SMPTE RP177
   Audio #3021
      ID : 3021 (0xBCD)
      Menu ID : 1 (0x1)
      Format : MPEG Audio
      Format version : Version 1
      Format profile : Layer 2
      Codec ID : 3
      Duration : 3mn 52s
      Bit rate mode : Constant
      Bit rate : 256 Kbps
      Channel(s) : 2 channels
      Sampling rate : 48.0 KHz
      Compression mode : Lossy
      Stream size : 7.09 MiB (1%)
      Language : English
游客,如果您要查看本帖隐藏内容请回复
回复

使用道具 举报

发表于 2019-12-18 11:36 | 显示全部楼层
Camila Cabello 这首 Havana  我每天必听。。
回复 支持 反对

使用道具 举报

发表于 2019-12-18 11:43 | 显示全部楼层
Havana很好听的歌,live现场必须收藏
回复 支持 反对

使用道具 举报

发表于 2019-12-18 13:52 | 显示全部楼层
Camila Cabello欧洲的音乐呀,听惯了亚洲的歌曲,还不怎么听过欧美的,支持
回复 支持 反对

使用道具 举报

发表于 2019-12-18 17:50 | 显示全部楼层
这首歌真的是好听啊,舞台也有好些不错的
回复 支持 反对

使用道具 举报

发表于 2019-12-18 18:57 | 显示全部楼层
很爱这首歌,当时不知循环了多少遍,但就是没看过视频。这个版本必须收下
回复 支持 反对

使用道具 举报

发表于 2019-12-19 08:25 | 显示全部楼层
从这首歌开始喜欢卡妹,并喜欢上她的。
回复 支持 反对

使用道具 举报

发表于 2019-12-20 12:22 | 显示全部楼层
这首 英文歌真是经典  很多歌手喜欢作为背景音乐跳舞
回复 支持 反对

使用道具 举报

发表于 2019-12-20 18:27 | 显示全部楼层
欧洲的音乐节从来没有接触过,下载了看看,体验下有什么特色不,感觉不一样啊
回复 支持 反对

使用道具 举报

发表于 2019-12-22 22:17 | 显示全部楼层
神曲再现,卡妹的音乐早就风靡了
回复 支持 反对

使用道具 举报

您需要登录后才可以回帖 登录 | 注册

本版积分规则

小黑屋|手机版|Archiver|韩国MTV网  

GMT+8, 2020-9-21 23:45 , Processed in 0.037387 second(s), 20 queries .

Powered by Discuz! X3.1

© 2001-2013 Comsenz Inc.

快速回复 返回顶部 返回列表