韩国MTV网[韩国音乐论坛]

 找回密码
 注册

QQ登录

只需一步,快速开始

查看: 1998|回复: 5

[kbs] 20081026.KBS1 第十届中韩歌会.整场(19.4M)[14.5G/TP/BD]

[复制链接]
发表于 2019-10-14 18:23 | 显示全部楼层 |阅读模式

J:\20081026 KBS1 The 10th Korea-China Music Festival HDTV 1080i MPEG2.tp
   General #1041
      ID : 1041 (0x411)
      Complete name : J:\20081026 KBS1 The 10th Korea-China Music Festival HDTV 1080i MPEG2.tp
      Format : MPEG-TS
      File size : 14.5 GiB
      Duration : 1h 47mn
      Start time : UTC 2008-10-26 08:10:12
      End time : UTC 2008-10-26 09:57:25
      Overall bit rate : 19.4 Mbps
   Video #33
      ID : 33 (0x21)
      Menu ID : 1 (0x1)
      Format : MPEG Video
      Format version : Version 2
      Format profile : Main@High
      Format settings, BVOP : Yes
      Format settings, Matrix : Custom
      Format settings, GOP : M=3, N=15
      Codec ID : 2
      Duration : 1h 47mn
      Bit rate : 17.5 Mbps
      Width : 1 920 pixels
      Height : 1 080 pixels
      Display aspect ratio : 16:9
      Active Format Description : Letterbox 16:9 image
      Frame rate : 29.970 fps
      Standard : Component
      Color space : YUV
      Chroma subsampling : 4:2:0
      Bit depth : 8 bits
      Scan type : Interlaced
      Scan order : Top Field First
      Compression mode : Lossy
      Bits/(Pixel*Frame) : 0.282
      Stream size : 13.5 GiB (93%)
      Language : Korean
      Name : ko:Video
   Audio #36
      ID : 36 (0x24)
      Menu ID : 1 (0x1)
      Format : AC-3
      Format/Info : Audio Coding 3
      Mode extension : CM (complete main)
      Codec ID : 129
      Duration : 1h 47mn
      Bit rate mode : Constant
      Bit rate : 384 Kbps
      Channel(s) : 2 channels
      Channel positions : Front: L R
      Sampling rate : 48.0 KHz
      Bit depth : 16 bits
      Compression mode : Lossy
      Delay relative to video : -84ms
      Stream size : 295 MiB (2%)
      Language : Korean
      Name : ko:Audio
积分低于800请勿购买!
购买主题 本主题需向作者支付 1000 金钱 才能浏览
回复

使用道具 举报

发表于 2019-10-14 19:25 | 显示全部楼层
中韩歌会已经好几年没有播了,自从中韩关系紧张后,这节目彻底88了。
回复 支持 反对

使用道具 举报

发表于 2019-10-19 00:21 | 显示全部楼层
中日韩关系都想塑料姐妹花一样
紧张但又彼此联系着点
音乐无国界 但是灵魂却有色彩
回复 支持 反对

使用道具 举报

发表于 2019-10-29 18:44 | 显示全部楼层
中韩歌会真的是好久不见了 还记得以前看自己的爱豆参加中韩歌会的那些表演 大家说着不同的语言 但是当时都是很开心的吧
回复 支持 反对

使用道具 举报

发表于 2019-11-9 00:45 | 显示全部楼层
这一届 孙俪娘娘的 爱如空气 这首歌非常让人记忆深刻 还有李贞贤的 发疯···
回复 支持 反对

使用道具 举报

发表于 2020-1-5 15:52 | 显示全部楼层
这场的确经典,也值这个票价,可惜,积分不够,希望论坛早日开通充值权限,
回复 支持 反对

使用道具 举报

您需要登录后才可以回帖 登录 | 注册

本版积分规则

小黑屋|手机版|Archiver|韩国MTV网  

GMT+8, 2020-9-28 06:26 , Processed in 0.046505 second(s), 23 queries .

Powered by Discuz! X3.1

© 2001-2013 Comsenz Inc.

快速回复 返回顶部 返回列表