韩国MTV网[韩国音乐论坛]

 找回密码
 注册

QQ登录

只需一步,快速开始

查看: 2973|回复: 26

[mnetjp] 20120102.Mnet Japan Mnet Live特集(H264)[2.75G/TS/BD]

[复制链接]
发表于 2019-9-17 22:44 | 显示全部楼层 |阅读模式

J:\[krmtv]20120102 Mnet Japan Mnet Live特集.ts
   General #16432
      ID : 16432 (0x4030)
      Complete name : J:\[krmtv]20120102 Mnet Japan Mnet Live特集.ts
      Format : MPEG-TS
      File size : 2.75 GiB
      Duration : 30mn 7s
      Start time : UTC 2012-01-02 01:59:55
      End time : UTC 2012-01-02 02:30:00
      Overall bit rate mode : Variable
      Overall bit rate : 13.0 Mbps
      Network name : |公样!塇D姷
      Original network name : Astra 8
   Video #4099
      ID : 4099 (0x1003)
      Menu ID : 33426 (0x8292)
      Format : AVC
      Format/Info : Advanced Video Codec
      Format profile : Main@L4.0
      Format settings, CABAC : Yes
      Format settings, ReFrames : 4 frames
      Codec ID : 27
      Duration : 30mn 7s
      Bit rate mode : Variable
      Bit rate : 12.3 Mbps
      Maximum bit rate : 20.0 Mbps
      Width : 1 440 pixels
      Height : 1 080 pixels
      Display aspect ratio : 16:9
      Frame rate : 29.970 fps
      Standard : Component
      Color space : YUV
      Chroma subsampling : 4:2:0
      Bit depth : 8 bits
      Scan type : Interlaced
      Scan order : Top Field First
      Bits/(Pixel*Frame) : 0.263
      Stream size : 2.58 GiB (94%)
      Color primaries : BT.709-5, BT.1361, IEC 61966-2-4, SMPTE RP177
      Transfer characteristics : BT.709-5, BT.1361
      Matrix coefficients : BT.709-5, BT.1361, IEC 61966-2-4 709, SMPTE RP177
   Audio #4163
      ID : 4163 (0x1043)
      Menu ID : 33426 (0x8292)
      Format : AAC
      Format/Info : Advanced Audio Codec
      Format version : Version 2
      Format profile : LC
      Muxing mode : ADTS
      Codec ID : 15
      Duration : 30mn 7s
      Bit rate mode : Constant
      Bit rate : 144 Kbps
      Channel(s) : 2 channels
      Channel positions : Front: L R
      Sampling rate : 48.0 KHz
      Compression mode : Lossy
      Delay relative to video : -575ms
      Stream size : 31.0 MiB (1%)
200积分
游客,如果您要查看本帖隐藏内容请回复
[/hide]
回复

使用道具 举报

发表于 2019-9-22 20:20 | 显示全部楼层
是女团特辑么???~~看截图貌似没有男团~~不过2012年有好多喜欢的歌~~
回复 支持 反对

使用道具 举报

发表于 2019-9-23 10:52 | 显示全部楼层
函数彩虹姐妹好多二代女团当时的热歌
回复 支持 反对

使用道具 举报

发表于 2019-9-23 21:36 | 显示全部楼层
时间穿越了的错觉   当时还是二代天下
回复 支持 反对

使用道具 举报

发表于 2019-9-26 22:39 | 显示全部楼层
正常的资源有点太大了。不知道要下多久哦
回复 支持 反对

使用道具 举报

发表于 2019-9-29 10:30 | 显示全部楼层
2012年特辑经典中的经典!谢谢楼主分享!不知道当年而三代啥歌曲我会几首!
回复 支持 反对

使用道具 举报

发表于 2019-9-29 13:09 | 显示全部楼层
很喜欢这种女团的特辑  谢谢楼主了
回复 支持 反对

使用道具 举报

发表于 2019-9-30 18:44 | 显示全部楼层
12年的,好像里面有少时?
回复 支持 反对

使用道具 举报

发表于 2019-10-2 16:32 | 显示全部楼层
看到曾经的现场满满的回忆啊,那时候的阿粉还好青涩
回复 支持 反对

使用道具 举报

发表于 2019-10-5 11:20 | 显示全部楼层
一眼就看到当年的彩虹~ 那时候的kpop真的是经典
回复 支持 反对

使用道具 举报

您需要登录后才可以回帖 登录 | 注册

本版积分规则

小黑屋|手机版|Archiver|韩国MTV网  

GMT+8, 2020-9-28 03:11 , Processed in 0.041803 second(s), 19 queries .

Powered by Discuz! X3.1

© 2001-2013 Comsenz Inc.

快速回复 返回顶部 返回列表