韩国MTV网[韩国音乐论坛]

 找回密码
 注册

QQ登录

只需一步,快速开始

查看: 4655|回复: 66

[sbs] 100822.SBS 金正恩的巧克力.Baby V.O.X - Cut(19.4M)[2.6G/TP/BD]

[复制链接]
发表于 2019-9-13 18:27 | 显示全部楼层 |阅读模式

H:\[krmtv]Baby V.O.X - Cut (100822 SBS 金正恩的巧克力)_19.4.tp
   General #5137
      ID : 5137 (0x1411)
      Complete name : H:\[krmtv]Baby V.O.X - Cut (100822 SBS 金正恩的巧克力)_19.4.tp
      Format : MPEG-TS
      File size : 2.62 GiB
      Duration : 19mn 22s
      Start time : UTC 2010-08-22 15:39:43
      End time : UTC 2010-08-22 15:59:04
      Overall bit rate : 19.4 Mbps
   Video #17
      ID : 17 (0x11)
      Menu ID : 1 (0x1)
      Format : MPEG Video
      Format version : Version 2
      Format profile : Main@High
      Format settings, BVOP : Yes
      Format settings, Matrix : Default
      Format settings, GOP : M=3, N=15
      Codec ID : 2
      Duration : 19mn 22s
      Bit rate : 17.4 Mbps
      Width : 1 920 pixels
      Height : 1 088 pixels
      Display aspect ratio : 16:9
      Frame rate : 29.970 fps
      Standard : Component
      Color space : YUV
      Chroma subsampling : 4:2:0
      Bit depth : 8 bits
      Scan type : Interlaced
      Scan order : Top Field First
      Compression mode : Lossy
      Bits/(Pixel*Frame) : 0.278
      Stream size : 2.44 GiB (93%)
      Language : Korean
      Name : ko:video
   Audio #20
      ID : 20 (0x14)
      Menu ID : 1 (0x1)
      Format : AC-3
      Format/Info : Audio Coding 3
      Mode extension : CM (complete main)
      Codec ID : 129
      Duration : 19mn 22s
      Bit rate mode : Constant
      Bit rate : 384 Kbps
      Channel(s) : 2 channels
      Channel positions : Front: L R
      Sampling rate : 48.0 KHz
      Bit depth : 16 bits
      Compression mode : Lossy
      Delay relative to video : -436ms
      Stream size : 53.2 MiB (2%)
      Language : Korean
      Name : ko:audio
今天发现115必须绑定手机号,当年注册的几十个115帐号看样子要废了,可惜了里面的资源。。。
记得当年115是个非常不错的网盘,只是容量太少了,好像只有20G左右。
为了转存资源,当时还注册了N个帐号,谁知说关就关了。
今后会把一些老资源分享给大家,别等到不玩的时候浪费了...

200积分
游客,如果您要查看本帖隐藏内容请回复
[/hide]
回复

使用道具 举报

发表于 2019-9-13 20:20 | 显示全部楼层
这个真是珍藏挡啊,金正恩的巧克力这种好看的音乐节目现在是看不到了。
回复 支持 反对

使用道具 举报

发表于 2019-9-13 20:57 | 显示全部楼层
哈哈...真是中秋节日的大礼物~~
期待会有 Wax 的现场(特别是为你补妆,想爱的现场)
还有 李秀英 的现场!!

点评

Wax的还真没有  发表于 2019-9-17 23:23
回复 支持 反对

使用道具 举报

发表于 2019-9-13 22:19 | 显示全部楼层
这个舞台确实不容易收到了  可惜了好多115的都打不开了
回复 支持 反对

使用道具 举报

发表于 2019-9-14 00:32 | 显示全部楼层
金正恩的巧克力  这音乐节目已经没了,还有孝琳那期也好看,可惜我硬盘坏了。之前的资源没了。
回复 支持 反对

使用道具 举报

发表于 2019-9-14 16:32 | 显示全部楼层
这一场我记得我之前有19.4的档 但是不知道存哪儿去了 希望能补上 感谢啦
回复 支持 反对

使用道具 举报

发表于 2019-9-15 13:50 | 显示全部楼层
非常感谢楼主的补档,这个已经是极品了
回复 支持 反对

使用道具 举报

发表于 2019-9-16 15:25 | 显示全部楼层
我最期待的是他们的 KILLER  WHY着两首歌···· 当年网盘不是那么普及 2.6G真的很难存储下来哦··
回复 支持 反对

使用道具 举报

发表于 2019-9-18 15:04 | 显示全部楼层
那个时候的伊恩惠还蛮青涩的呢。
回复 支持 反对

使用道具 举报

发表于 2019-9-20 10:47 | 显示全部楼层
很难得的资源,金正恩的巧克力再也找不到了
回复 支持 反对

使用道具 举报

您需要登录后才可以回帖 登录 | 注册

本版积分规则

小黑屋|手机版|Archiver|韩国MTV网  

GMT+8, 2020-9-28 06:45 , Processed in 0.040748 second(s), 20 queries .

Powered by Discuz! X3.1

© 2001-2013 Comsenz Inc.

快速回复 返回顶部 返回列表