韩国MTV网[韩国音乐论坛]

 找回密码
 注册

QQ登录

只需一步,快速开始

查看: 342|回复: 3

[mnetjp] 20200723.Mnet Japan M!Countdown.整场(H264)[7.1G/TS/BD]

[复制链接]
发表于 2020-7-29 11:08 | 显示全部楼层 |阅读模式

E:\20200723 Mnet Japan M!Countdown 1080i HDTV H264.ts
   General #16424
      ID : 16424 (0x4028)
      Complete name : E:\20200723 Mnet Japan M!Countdown 1080i HDTV H264.ts
      Format : MPEG-TS
      File size : 7.10 GiB
      Duration : 1h 35mn
      Start time : UTC 2020-07-23 18:08:15
      End time : UTC 2020-07-23 19:43:40
      Overall bit rate mode : Variable
      Overall bit rate : 10.7 Mbps
      Network name : |公样!
      Original network name : Astra 8
   Video #4100
      ID : 4100 (0x1004)
      Menu ID : 33426 (0x8292)
      Format : AVC
      Format/Info : Advanced Video Codec
      Format profile : High@L4.0
      Format settings, CABAC : Yes
      Format settings, ReFrames : 4 frames
      Format settings, GOP : M=4, N=28
      Codec ID : 27
      Duration : 1h 35mn
      Bit rate mode : Variable
      Bit rate : 9 990 Kbps
      Maximum bit rate : 20.0 Mbps
      Width : 1 440 pixels
      Height : 1 080 pixels
      Display aspect ratio : 16:9
      Frame rate : 29.970 fps
      Standard : Component
      Color space : YUV
      Chroma subsampling : 4:2:0
      Bit depth : 8 bits
      Scan type : Interlaced
      Scan order : Top Field First
      Bits/(Pixel*Frame) : 0.214
      Stream size : 6.66 GiB (94%)
      Color primaries : BT.709-5, BT.1361, IEC 61966-2-4, SMPTE RP177
      Transfer characteristics : BT.709-5, BT.1361
      Matrix coefficients : BT.709-5, BT.1361, IEC 61966-2-4 709, SMPTE RP177
   Audio #4164
      ID : 4164 (0x1044)
      Menu ID : 33426 (0x8292)
      Format : AAC
      Format/Info : Advanced Audio Codec
      Format version : Version 2
      Format profile : LC
      Muxing mode : ADTS
      Codec ID : 15
      Duration : 1h 35mn
      Bit rate mode : Constant
      Bit rate : 141 Kbps
      Channel(s) : 2 channels
      Channel positions : Front: L R
      Sampling rate : 48.0 KHz
      Compression mode : Lossy
      Delay relative to video : -95ms
      Stream size : 96.2 MiB (1%)
购买主题 本主题需向作者支付 80 金钱 才能浏览
回复

使用道具 举报

发表于 2020-7-29 15:30 | 显示全部楼层
一次可以下载正常真的太赞了,小女友这次回归的歌曲真的很魔性,一直在脑子里循环
回复 支持 反对

使用道具 举报

发表于 2020-7-29 22:29 | 显示全部楼层
最近真的是喜欢的女团 女solo扎堆地回归啊  舞台一个个都好精彩的说
回复 支持 反对

使用道具 举报

发表于 2020-7-30 13:31 | 显示全部楼层
somi回归了 瘦了好多 这次打歌服给力啊
回复 支持 反对

使用道具 举报

您需要登录后才可以回帖 登录 | 注册

本版积分规则

小黑屋|手机版|Archiver|韩国MTV网  

GMT+8, 2020-9-30 07:24 , Processed in 0.039514 second(s), 23 queries .

Powered by Discuz! X3.1

© 2001-2013 Comsenz Inc.

快速回复 返回顶部 返回列表