韩国MTV网[韩国音乐论坛]

 找回密码
 注册

QQ登录

只需一步,快速开始

查看: 889|回复: 0

[其它] 2019-2020 BLACKPINK 首次世界巡回演唱会(蓝光原盘)

 关闭 [复制链接]
发表于 2020-7-7 22:25 | 显示全部楼层 |阅读模式

General
ID                             : 0 (0x0)
Complete name                  : I:\00000.m2ts
Format                         : BDAV
Format/Info                    : Blu-ray Video
File size                      : 25.2 GiB
Duration                       : 1 h 31 min
Overall bit rate mode          : Variable
Overall bit rate               : 39.5 Mb/s
Maximum Overall bit rate       : 48.0 Mb/s

Video
ID                             : 4113 (0x1011)
Menu ID                        : 1 (0x1)
Format                         : AVC
Format/Info                    : Advanced Video Codec
Format profile                 : High@L4.1
Format settings                : CABAC / 4 Ref Frames
Format settings, CABAC         : Yes
Format settings, Reference fra : 4 frames
Codec ID                       : 27
Duration                       : 1 h 31 min
Bit rate mode                  : Variable
Bit rate                       : 35.6 Mb/s
Maximum bit rate               : 37.0 Mb/s
Width                          : 1 920 pixels
Height                         : 1 080 pixels
Display aspect ratio           : 16:9
Frame rate                     : 23.976 (24000/1001) FPS
Color space                    : YUV
Chroma subsampling             : 4:2:0
Bit depth                      : 8 bits
Scan type                      : Progressive
Bits/(Pixel*Frame)             : 0.717
Stream size                    : 22.7 GiB (90%)

Audio
ID                             : 4352 (0x1100)
Menu ID                        : 1 (0x1)
Format                         : PCM
Format settings                : Big / Signed
Muxing mode                    : Blu-ray
Codec ID                       : 128
Duration                       : 1 h 31 min
Bit rate mode                  : Constant
Bit rate                       : 2 304 kb/s
Channel(s)                     : 2 channels
Channel layout                 : L R
Sampling rate                  : 48.0 kHz
Bit depth                      : 24 bits
Stream size                    : 1.47 GiB (6%)

回复

使用道具 举报

您需要登录后才可以回帖 登录 | 注册

本版积分规则

小黑屋|手机版|Archiver|韩国MTV网  

GMT+8, 2020-9-21 22:43 , Processed in 0.030383 second(s), 21 queries .

Powered by Discuz! X3.1

© 2001-2013 Comsenz Inc.

快速回复 返回顶部 返回列表